<?xml version="1.0" standalone="no"?>
<!DOCTYPE svg PUBLIC "-//W3C//DTD SVG 1.1//EN" "http://www.w3.org/Graphics/SVG/1.1/DTD/svg11.dtd" >
<svg xmlns="http://www.w3.org/2000/svg">
<metadata></metadata>
<defs>
<font id="merriweather_sansregular" horiz-adv-x="0" >
<font-face units-per-em="2048" ascent="1638" descent="-410" />
<missing-glyph horiz-adv-x="655" />
<glyph unicode="&#xfb01;" horiz-adv-x="1417" d="M75 974v122l173 44v99q0 300 224 404q85 39 178.5 39t152.5 -22v-174q-60 20 -134 20t-103.5 -13.5t-51.5 -40.5q-46 -56 -46 -163v-149h282v-166h-282v-974h-220v974h-173zM966 1468.5q0 46.5 14 75t37 49.5q49 45 98 45t75.5 -10.5t43.5 -29.5q35 -36 35 -83 t-13.5 -75.5t-36 -49t-52 -32t-59 -11.5t-55 9.5t-45.5 27.5q-42 38 -42 84.5zM1004 0v1138h220v-1138h-220z" />
<glyph unicode="&#xfb02;" horiz-adv-x="1424" d="M75 974v122l173 44v99q0 300 224 404q85 39 178.5 39t152.5 -22v-174q-60 20 -134 20t-103.5 -13.5t-51.5 -40.5q-46 -56 -46 -163v-149h282v-166h-282v-974h-220v974h-173zM1008 0v1664h220v-1664h-220z" />
<glyph unicode="&#xfb03;" horiz-adv-x="2228" d="M75 974v122l173 44v99q0 300 224 404q85 39 178.5 39t152.5 -22v-174q-60 20 -134 20t-103.5 -13.5t-51.5 -40.5q-46 -56 -46 -163v-149h282v-166h-282v-974h-220v974h-173zM886 974v122l173 44v99q0 300 224 404q85 39 178.5 39t152.5 -22v-174q-60 20 -134 20 t-103.5 -13.5t-51.5 -40.5q-46 -56 -46 -163v-149h282v-166h-282v-974h-220v974h-173zM1777 1468.5q0 46.5 14 75t37 49.5q49 45 98 45t75.5 -10.5t43.5 -29.5q35 -36 35 -83t-13.5 -75.5t-36 -49t-52 -32t-59 -11.5t-55 9.5t-45.5 27.5q-42 38 -42 84.5zM1815 0v1138h220 v-1138h-220z" />
<glyph unicode="&#xfb04;" horiz-adv-x="2235" d="M75 974v122l173 44v99q0 300 224 404q85 39 178.5 39t152.5 -22v-174q-60 20 -134 20t-103.5 -13.5t-51.5 -40.5q-46 -56 -46 -163v-149h282v-166h-282v-974h-220v974h-173zM886 974v122l173 44v99q0 300 224 404q85 39 178.5 39t152.5 -22v-174q-60 20 -134 20 t-103.5 -13.5t-51.5 -40.5q-46 -56 -46 -163v-149h282v-166h-282v-974h-220v974h-173zM1819 0v1664h220v-1664h-220z" />
<glyph />
<glyph horiz-adv-x="682" />
<glyph />
<glyph />
<glyph />
<glyph />
<glyph />
<glyph />
<glyph />
<glyph unicode="&#x9;" />
<glyph unicode="&#xa;" />
<glyph />
<glyph />
<glyph />
<glyph />
<glyph />
<glyph />
<glyph />
<glyph />
<glyph />
<glyph />
<glyph />
<glyph />
<glyph unicode=" "  horiz-adv-x="655" />
<glyph unicode="&#x09;" horiz-adv-x="655" />
<glyph unicode="&#xa0;" horiz-adv-x="655" />
<glyph unicode="!" horiz-adv-x="602" d="M147 133.5q0 34.5 13 65t36 53.5q49 52 98 52t76 -12t46 -33q39 -45 39 -95t-13 -81t-36 -55q-48 -50 -113 -50q-58 0 -101 43q-20 20 -32.5 49t-12.5 63.5zM182 1780h248l-24 -1274h-196z" />
<glyph unicode="&#x22;" horiz-adv-x="1284" d="M265 1685h242l-32 -719h-177zM776 1685h242l-32 -719h-177z" />
<glyph unicode="#" horiz-adv-x="1563" d="M207 355v156h216l33 369h-215v153h229l31 340h191l-32 -340h307l30 340h190l-31 -340h222v-153h-236l-34 -369h226v-156h-241l-32 -355h-185l31 355h-310l-33 -355h-187l32 355h-202zM611 511h310l32 369h-307z" />
<glyph unicode="$" horiz-adv-x="1372" d="M232 1147q0 175 122 277q104 87 279 107l2 231h163l-2 -226q186 -10 296 -77l-45 -176q-130 80 -312 80q-194 0 -265 -101q-25 -36 -25 -88.5t16.5 -93t52.5 -74.5q56 -53 169.5 -111t163.5 -86t97 -59.5t88 -68t72 -79.5q65 -94 65 -196t-30 -174t-84 -123 q-105 -99 -298 -120l-2 -226h-163l2 223q-177 11 -306 60q-35 13 -53 25l53 183q101 -61 255 -85q52 -8 104 -8q303 0 303 211q0 103 -88 176q-59 49 -189.5 112t-199 108t-121.5 102q-120 127 -120 277z" />
<glyph unicode="%" horiz-adv-x="1962" d="M75 1083.5q0 183.5 114.5 298t281 114.5t254 -113.5t87.5 -302.5t-114.5 -302t-273.5 -113t-254 117.5t-95 301zM270 1083q0 -187 99 -251q32 -20 73 -20q85 0 130 70t45 194q0 194 -99 254q-32 20 -72 20q-85 0 -130.5 -72t-45.5 -195zM557 0l650 1530h190l-650 -1530 h-190zM1150 468q0 92 31.5 169.5t84.5 130.5q113 113 279 113q168 0 258 -117q84 -111 84 -296q0 -192 -117 -306q-112 -111 -276 -111q-156 0 -251 119q-93 117 -93 298zM1346 468q0 -188 98 -250q32 -21 73 -21q85 0 130 70t45 194q0 194 -98 255q-32 20 -73 20 q-85 0 -130 -72t-45 -196z" />
<glyph unicode="&#x26;" horiz-adv-x="1532" d="M147 394q0 249 311 393q-82 111 -111 171q-58 121 -58 217t29 162.5t83 112.5q111 96 302 96q170 0 275 -105q99 -99 99 -239q0 -256 -197 -392q-63 -44 -142 -81q89 -128 196.5 -260t146.5 -174q82 86 82 228q0 84 -33 205h192q29 -94 29 -206q0 -218 -138 -342 q82 -53 216 -68v-113q-50 -15 -117 -15q-135 0 -250 78q-147 -78 -295.5 -78t-259.5 25.5t-191 76.5q-169 109 -169 308zM354 400q0 -174 204 -235q74 -22 156 -22t126 11.5t86 28.5q-141 157 -370 475q-202 -105 -202 -258zM493 1192.5q0 -54.5 9 -93t28 -74t47.5 -74.5 t67.5 -93q122 54 179 128q66 85 66 213q0 69 -48 126q-54 65 -143 65q-143 0 -189 -106q-17 -37 -17 -91.5z" />
<glyph unicode="'" horiz-adv-x="772" d="M265 1685h242l-32 -719h-177z" />
<glyph unicode="(" horiz-adv-x="846" d="M120 723q0 475 290 851q93 120 157 156l151 -74q-104 -81 -213 -272q-94 -165 -142 -396q-30 -144 -30 -289t18.5 -259.5t53 -217.5t78.5 -183.5t89 -139.5q76 -102 146 -154l-151 -75q-129 86 -255 294q-192 318 -192 759z" />
<glyph unicode=")" horiz-adv-x="846" d="M128 -229q104 81 213 272q94 165 142 396q30 144 30 289t-18.5 259.5t-53 217.5t-78.5 183.5t-89 139.5q-76 102 -146 154l151 75q129 -86 255 -294q192 -318 192 -759q0 -475 -290 -851q-93 -120 -157 -156z" />
<glyph unicode="*" horiz-adv-x="1208" d="M117 1321l93 165l220 -145l129 -113l-39 167l-19 265h192l-13 -262l-34 -168q19 19 32.5 31.5t29 27t28.5 27.5q32 31 35 32l220 146l95 -163l-232 -121l-164 -55l165 -49l236 -115l-97 -170l-217 144l-131 113l39 -168l21 -262l-192 -1l12 263l35 170l-126 -121 l-218 -146l-96 164l231 124l165 53q-2 1 -14 4.5t-30 9t-38.5 11.5t-38.5 11q-43 12 -45 13z" />
<glyph unicode="+" horiz-adv-x="1393" d="M229 685v177h220l165 -11l-7 172v228h178v-228l-8 -172l141 11h246v-177h-246l-141 7l8 -171v-236h-178v236l7 171l-165 -7h-220z" />
<glyph unicode="," horiz-adv-x="602" d="M151 -382q89 44 121 174q10 41 10 78t-10 71.5t-27 64.5q-38 65 -85 71v63l139 131q97 -37 148 -139q43 -85 43 -176.5t-21.5 -164t-58.5 -130.5q-75 -119 -185 -161l-74 92v26z" />
<glyph unicode="-" horiz-adv-x="1350" d="M250 683v177h850v-177h-850z" />
<glyph unicode="." horiz-adv-x="602" d="M147 133.5q0 34.5 13 65t36 53.5q49 52 98.5 52t76.5 -12t45 -33q39 -44 39 -94.5t-12.5 -81.5t-34.5 -55q-49 -50 -115 -50q-57 0 -100 43q-20 20 -33 49t-13 63.5z" />
<glyph unicode="/" horiz-adv-x="854" d="M42 -363l570 1962h198l-570 -1962h-198z" />
<glyph unicode="0" horiz-adv-x="1386" d="M148 644.5q0 137.5 44.5 257.5t119.5 202q155 170 399 170q282 0 415 -186q112 -156 112 -440q0 -298 -154 -482q-152 -182 -398 -182q-276 0 -418 202q-65 91 -92.5 206t-27.5 252.5zM375 652q0 -212 77 -354q88 -162 251 -162q150 0 229 129q79 127 79 364 q0 340 -172 453q-59 38 -140 38t-141.5 -32.5t-101.5 -93.5q-81 -121 -81 -342z" />
<glyph unicode="1" horiz-adv-x="918" d="M130 1077q147 45 312 153q44 29 65 48l100 -25v-1253h-229v999q-118 -33 -223 -53z" />
<glyph unicode="2" horiz-adv-x="1269" d="M147 113q280 162 470 359q215 223 215 420q0 161 -134 209q-45 16 -99 16t-102.5 -12t-92.5 -31q-87 -39 -145 -99l-93 124q116 128 300 175q70 18 173.5 18t187.5 -32t135 -86q94 -100 94 -270q0 -191 -150 -388q-145 -190 -396 -345l615 6v-177h-945z" />
<glyph unicode="3" horiz-adv-x="1147" d="M104 1132q120 99 291 142q63 15 139 15t154.5 -22.5t138.5 -67.5q130 -97 130 -268q0 -183 -167 -311q-50 -39 -108 -66q164 -19 264 -128q92 -100 92 -221t-46 -217q-97 -199 -348 -285q-123 -42 -278 -42q-103 0 -213 20l-1 152q85 -17 180 -17t187 28t157 76 q138 101 138 253q0 212 -194 263q-49 12 -92.5 12t-70.5 -2l-91 -22l-46 151q101 20 197.5 59.5t158.5 110.5q64 72 64 165q0 103 -67 156q-61 49 -169 49q-161 0 -314 -108z" />
<glyph unicode="4" horiz-adv-x="1339" d="M116 104l584 1195h79l136 -84l-466 -894l-89 -151h460l18 433h202v-433h231v-170h-231v-376h-220v376h-650z" />
<glyph unicode="5" horiz-adv-x="1227" d="M204 -336l1 148q32 -2 63 -2q257 0 422 116q166 117 166 297q0 151 -77.5 227.5t-248.5 76.5q-116 0 -270 -48l-50 30l56 743h771l-22 -190h-578l-39 -400q126 29 233 29t191.5 -32t141.5 -91q116 -119 116 -331q0 -107 -48.5 -211t-143.5 -186q-213 -185 -560 -189 q-82 0 -124 13z" />
<glyph unicode="6" horiz-adv-x="1373" d="M160 571q0 258 130 484q118 204 316 346q188 135 383 172l60 -142q-182 -48 -335 -171q-217 -175 -290 -430q-23 -80 -24.5 -131t-1.5 -72q0 -490 305 -490q135 0 212 111q70 102 70 249q0 171 -69 253q-58 67 -157 67t-175 -46l-60 130q59 55 183 79q45 8 119.5 8 t149.5 -36t126 -97q106 -125 106 -312q0 -233 -132 -387q-146 -172 -402 -172q-236 0 -379 174q-135 165 -135 413z" />
<glyph unicode="7" horiz-adv-x="1241" d="M150 1093l1 178h949l46 -58l-571 -1548l-235 68q263 560 564 1358z" />
<glyph unicode="8" horiz-adv-x="1307" d="M152 376.5q0 194.5 166 336.5q59 50 143 91q-250 159 -250 390q0 176 137 278q127 93 327 93q198 0 319 -96q122 -97 122 -253q0 -188 -153 -329q-53 -49 -127 -85q163 -94 223 -154q118 -120 118 -253q0 -196 -149 -307q-139 -104 -353 -104q-215 0 -357 91 q-166 107 -166 301.5zM363 402q0 -124 78 -194t242 -70q109 0 190 62q86 66 86 173q0 155 -221 277q-63 35 -130 71q-171 -70 -227 -218q-18 -48 -18 -101zM414 1207q0 -141 170 -256q51 -34 107 -67q159 53 208 212q15 50 15 98.5t-15 87.5t-47 68q-67 62 -184 62 q-109 0 -180 -54q-74 -55 -74 -151z" />
<glyph unicode="9" horiz-adv-x="1399" d="M176 725q0 247 140 395q144 152 393 152q241 0 379 -176q128 -161 128 -412q0 -271 -137 -517q-120 -216 -327 -371q-190 -144 -391 -186l-74 136q296 75 499 343q120 159 168 333q24 85 25.5 133.5t1.5 69.5q0 490 -305 490q-121 0 -202 -100q-77 -94 -77 -201.5 t18.5 -177t51.5 -116.5q66 -93 176 -93q88 0 142 25l30 14l52 -124q-48 -56 -177 -78q-46 -8 -124.5 -8t-154.5 39t-129 104q-106 132 -106 326z" />
<glyph unicode=":" horiz-adv-x="602" d="M147 133.5q0 34.5 13 65t36 53.5q49 52 98.5 52t76.5 -12t45 -33q39 -44 39 -94.5t-12.5 -81.5t-34.5 -55q-49 -50 -115 -50q-57 0 -100 43q-20 20 -33 49t-13 63.5zM147 929.5q0 34.5 13 65t36 53.5q49 52 98.5 52t76.5 -12t45 -33q39 -44 39 -94.5t-12.5 -81.5 t-34.5 -55q-49 -50 -115 -50q-57 0 -100 43q-20 20 -33 49t-13 63.5z" />
<glyph unicode=";" horiz-adv-x="602" d="M147 929.5q0 34.5 13 65t36 53.5q49 52 98.5 52t76.5 -12t45 -33q39 -44 39 -94.5t-12.5 -81.5t-34.5 -55q-49 -50 -115 -50q-57 0 -100 43q-20 20 -33 49t-13 63.5zM151 -382q89 44 121 174q10 41 10 78t-10 71.5t-27 64.5q-38 65 -85 71v63l139 131q97 -37 148 -139 q43 -85 43 -176.5t-21.5 -164t-58.5 -130.5q-75 -119 -185 -161l-74 92v26z" />
<glyph unicode="&#x3c;" horiz-adv-x="1368" d="M168 696v154l966 446v-205l-731 -318l731 -313v-208z" />
<glyph unicode="=" horiz-adv-x="1399" d="M242 433v166h915v-166h-915zM242 949v167h915v-167h-915z" />
<glyph unicode="&#x3e;" horiz-adv-x="1368" d="M234 252l966 444v154l-966 446v-205l731 -318l-731 -313v-208z" />
<glyph unicode="?" horiz-adv-x="1047" d="M121 1637v160q31 23 105 32.5t111 9.5q340 0 495 -183q101 -119 101 -291q0 -55 -12 -120t-48 -119t-83.5 -95.5t-99 -74t-95.5 -64.5q-102 -72 -108 -143q-2 -20 -2 -36t1.5 -37t7.5 -51q7 -30 37 -131h-167q-55 65 -80 191q-9 47 -9 94.5t27.5 90t72.5 80.5t98.5 71.5 t102.5 68.5q114 81 127 153q14 57 14 100q0 216 -217 284q-86 27 -202 27t-177 -17zM333 129q0 33 13 63t36 53q48 50 96 50t74.5 -12t44.5 -32q38 -42 38 -91t-12.5 -79.5t-34.5 -53.5q-47 -49 -112 -49q-89 0 -130 90q-13 28 -13 61z" />
<glyph unicode="@" horiz-adv-x="2218" d="M213 424q0 331 139 590q132 249 370 389q237 140 530 140q341 0 545 -185q211 -190 211 -526q0 -380 -178 -617q-106 -142 -251 -195q-70 -25 -141 -25q-155 0 -152 243q1 32 6 75q-116 -222 -263 -293q-53 -25 -107 -25t-105 27q-110 56 -157 218q-23 76 -23 131t1 94 t16 112.5t45 143.5t75.5 132t107.5 109q134 101 299.5 101t245.5 -55l172 31q-76 -278 -111 -503.5t-35 -303.5t37 -78t76.5 23t77.5 64.5t72 100t60 129.5q55 155 55 300.5t-22 237.5t-62 158.5t-96.5 111t-124.5 70.5q-127 48 -276.5 48t-254.5 -31.5t-196.5 -90.5 t-167 -143t-129.5 -190q-113 -222 -113 -497q0 -525 359 -701q150 -74 368.5 -74t386.5 84l39 -129q-109 -68 -326 -95q-71 -8 -143 -8q-381 0 -611 222q-249 240 -249 680zM825 445q0 -273 140 -273q65 0 155 122q128 175 202 416q22 72 30 129q-32 56 -129 71q-26 4 -48 4 q-154 0 -255 -143q-95 -134 -95 -326z" />
<glyph unicode="A" horiz-adv-x="1407" d="M21 0l582 1538h215l568 -1538h-241l-130 385h-622l-136 -385h-236zM452 551h507l-204 609l-43 142l-44 -142z" />
<glyph unicode="B" horiz-adv-x="1339" d="M194 0v1523l104 -1l350 15q372 0 466 -213q30 -66 30 -132.5t-13 -122t-41 -105.5q-62 -111 -177 -141q138 -6 237 -117q97 -108 97 -250q0 -224 -130 -338q-151 -132 -465 -132q-158 0 -347 14h-111zM416 171q37 -23 182 -23t212 14t114 47q97 68 97 215.5t-86 213 t-267 65.5l-99 1q-109 0 -153 -6v-527zM416 867q42 -7 138 -7l139 2q102 0 166 70q69 77 69 213q0 235 -321 235q-158 0 -191 -13v-500z" />
<glyph unicode="C" horiz-adv-x="1313" d="M95 753q0 364 212 581q97 100 224.5 152t241 52t179 -7t113.5 -16.5t80.5 -19t52.5 -14.5l-32 -198q-136 74 -352 74q-230 0 -364 -159t-134 -430t132 -438q136 -170 365 -170q177 0 315 58q39 17 59 35l1 -189q-147 -58 -230 -69t-154 -11q-321 0 -516 212 q-193 211 -193 557z" />
<glyph unicode="D" horiz-adv-x="1472" d="M194 0v1522h112l360 16q361 0 544 -194q178 -187 178 -540q0 -388 -200 -608q-194 -212 -528 -212l-381 16h-85zM418 168q79 -19 259 -19q342 7 443 341q36 117 36 283.5t-34.5 282t-102.5 187t-169.5 103t-229 31.5t-202.5 -16v-1193z" />
<glyph unicode="E" horiz-adv-x="1217" d="M194 0v1522h876v-172h-653v-480h479v-172h-479v-523h726v-175h-949z" />
<glyph unicode="F" horiz-adv-x="1083" d="M194 0v1522h874v-172h-650v-499h487v-172h-487v-679h-224z" />
<glyph unicode="G" horiz-adv-x="1433" d="M99 753q0 377 205 588q191 197 500 197q147 0 221 -14.5t114.5 -25t90.5 -20.5l-10 -200q-163 86 -430 86q-203 0 -330 -154q-130 -159 -130 -430q0 -278 115 -445q125 -181 356 -181q141 0 245 32q34 10 56 25v377l-277 13v160h492v-667q-33 -2 -74 -19.5t-100 -37.5 q-156 -53 -332 -53t-307 58.5t-221 161.5q-184 209 -184 549z" />
<glyph unicode="H" horiz-adv-x="1552" d="M194 0v1522h223v-667h718v667h223v-1522h-223v683h-718v-683h-223z" />
<glyph unicode="I" horiz-adv-x="640" d="M207 0v1522h226v-1522h-226z" />
<glyph unicode="J" horiz-adv-x="713" d="M-42 -215q149 52 232 176q50 76 64 211q14 125 14 436v914h226v-909l2 -216q0 -198 -19 -303.5t-67.5 -179.5t-112.5 -126q-120 -96 -271 -120z" />
<glyph unicode="K" horiz-adv-x="1371" d="M194 0v1522h223v-764l603 764h263l-539 -656q42 -70 164.5 -250t169.5 -250q111 -169 159 -256l65 -110h-257q-11 15 -21 36l-18 37q-61 121 -209.5 341.5t-190.5 286.5l-189 -220v-481h-223z" />
<glyph unicode="L" horiz-adv-x="1080" d="M194 0v1522h228v-1347h604v-175h-832z" />
<glyph unicode="M" horiz-adv-x="1923" d="M134 -1l154 1523h315l282 -869l79 -323l75 323l270 869h299l182 -1522h-224l-93 946l-29 410l-102 -410l-318 -961h-120l-332 961l-112 409l-27 -409l-83 -946z" />
<glyph unicode="N" horiz-adv-x="1556" d="M193 0v1522h204l651 -1005l123 -226l-13 254v977h205v-1522h-207l-630 967l-140 249l12 -264v-952h-205z" />
<glyph unicode="O" horiz-adv-x="1569" d="M100 751q0 200 58.5 349t154.5 245q193 193 495 193q304 0 485 -212q176 -205 176 -543q0 -383 -197.5 -591t-504.5 -208t-487 214.5t-180 552.5zM325 758q0 -253 116 -420q127 -183 358 -183q90 0 174.5 40t144.5 118q125 163 125 459q0 254 -111 418q-122 178 -331 178 q-206 0 -335 -148q-141 -164 -141 -462z" />
<glyph unicode="P" horiz-adv-x="1270" d="M194 0v1522h105q87 0 176 8t201 8t210.5 -28.5t167.5 -88.5q142 -125 142 -376t-148 -386q-74 -67 -183 -102t-206 -35t-242 5v-527h-223zM417 696q73 -10 165 -10t159.5 13.5t118.5 52.5q114 86 114 280t-93 270t-241.5 76t-222.5 -19v-663z" />
<glyph unicode="Q" horiz-adv-x="1569" d="M100 751q0 200 58.5 349t154.5 245q193 193 495 193q304 0 485 -212q176 -205 176 -543q0 -315 -141 -521q-127 -184 -349 -249q122 -126 348 -126q130 0 184 19v-160q-60 -40 -161 -40t-175 12t-144 43q-146 65 -265 223h-5q-303 0 -487 222q-174 210 -174 545zM325 758 q0 -253 116 -420q127 -183 358 -183q90 0 174.5 40t144.5 118q125 163 125 459q0 254 -111 418q-122 178 -331 178q-206 0 -335 -148q-141 -164 -141 -462z" />
<glyph unicode="R" horiz-adv-x="1367" d="M194 0v1522h97q75 0 176 8t214.5 8t209 -24t163.5 -76q143 -109 143 -328q0 -168 -73.5 -272.5t-201.5 -149.5q85 -58 176 -256q26 -55 50 -110q80 -186 158 -322h-253q-14 20 -29 54t-31 68t-36 88t-42 109.5t-46 109t-52 98.5q-62 99 -135 123q-45 -2 -108 -2h-157 v-648h-223zM417 806q48 -6 131 -6h104q317 0 317 299q0 145 -73 209q-77 66 -277 66q-116 0 -202 -18v-550z" />
<glyph unicode="S" horiz-adv-x="1132" d="M125 1147q0 262 265 355q105 36 207.5 36t159 -7.5t100.5 -18.5q79 -21 128 -53l-45 -176q-130 80 -312 80q-194 0 -265 -101q-25 -36 -25 -88.5t16.5 -93t53.5 -74.5q55 -53 168.5 -111t163.5 -86t97 -59.5t88 -68t71 -79.5q66 -94 66 -202t-37.5 -186t-104.5 -129 q-133 -101 -365 -101q-211 0 -366 58q-41 16 -61 29l53 183q101 -61 255 -85q52 -8 104 -8q303 0 303 211q0 103 -88 176q-59 49 -189.5 112t-199 108t-122.5 102q-119 127 -119 277z" />
<glyph unicode="T" horiz-adv-x="1303" d="M63 1350v172h1177v-172h-477v-1350h-225v1350h-475z" />
<glyph unicode="U" horiz-adv-x="1463" d="M159 633v889h223l-1 -836q0 -300 96 -422q84 -106 271 -106q167 0 244 107q91 125 91 421v836h222v-892q0 -477 -315 -604q-106 -42 -256 -42t-260.5 43.5t-180.5 126.5q-134 159 -134 479z" />
<glyph unicode="V" horiz-adv-x="1355" d="M22 1522h237l360 -1024l67 -235l69 235l344 1024h234l-555 -1535h-187z" />
<glyph unicode="W" horiz-adv-x="1918" d="M22 1522h229l242 -988l50 -276l51 276l287 988h161l291 -988l66 -278l47 277l226 989h224l-393 -1538h-218l-290 998l-35 182l-34 -183l-294 -997h-191z" />
<glyph unicode="X" horiz-adv-x="1314" d="M43 0l480 786l-478 736l251 1l371 -606l356 605h239l-477 -769l487 -753h-254l-373 619l-363 -619h-239z" />
<glyph unicode="Y" horiz-adv-x="1264" d="M22 1522h238l338 -660l43 -105l36 105l331 660h234l-493 -929v-593h-226v593z" />
<glyph unicode="Z" horiz-adv-x="1294" d="M89 84l777 1189l58 71h-750v178h996l46 -81l-760 -1181l-74 -85h775v-175h-1023z" />
<glyph unicode="[" horiz-adv-x="837" d="M185 60v1426q0 149 37 200q38 51 153 51q109 0 181 -10t109 -14v-120h-268v-1642l268 -2v-116q-178 -24 -263 -24t-122 11.5t-58 39.5q-37 51 -37 200z" />
<glyph unicode="\" horiz-adv-x="854" d="M42 1599l570 -1962h198l-570 1962h-198z" />
<glyph unicode="]" horiz-adv-x="837" d="M172 -51v-116q178 -24 263 -24t122 11.5t58 39.5q37 51 37 200v1426q0 149 -37 200q-38 51 -153 51q-109 0 -181 -10t-109 -14v-120h268v-1642z" />
<glyph unicode="^" horiz-adv-x="1363" d="M185 490l394 1041h205l394 -1041h-211l-286 798l-285 -798h-211z" />
<glyph unicode="_" horiz-adv-x="1692" d="M-40 -279h1772v-137h-1772v137z" />
<glyph unicode="`" horiz-adv-x="595" d="M50 1648l157 135q94 -120 338 -399l-111 -90q-59 26 -197.5 153t-186.5 201z" />
<glyph unicode="a" horiz-adv-x="1131" d="M94 323q0 93 60 171q126 164 492 190q56 4 104 4v115q0 115 -60 155q-50 33 -183 33q-115 0 -253 -55q-36 -14 -55 -28l-54 144q86 54 285 92q68 13 146.5 13t153 -14.5t128.5 -54.5q112 -84 112 -294v-810h-90q-64 0 -83 12q-34 23 -34 92v8q-82 -75 -221 -102 q-48 -10 -111.5 -10t-127.5 22t-110.5 63.5t-72.5 101t-26 152.5zM311 324q0 -176 197 -176q109 0 208 57q25 14 34 24v319q-117 0 -199 -20t-111.5 -34t-52.5 -29.5t-40 -36.5q-36 -43 -36 -104z" />
<glyph unicode="b" horiz-adv-x="1238" d="M166 64v1597h220v-472l-8 -159q126 126 313 126q192 0 315 -134q135 -146 135 -410q0 -279 -157 -454q-160 -176 -418 -176q-171 0 -342 57q-42 14 -58 25zM386 184q57 -40 205 -40q143 0 231 112q95 121 95 336q0 391 -287 391q-124 0 -244 -93v-706z" />
<glyph unicode="c" horiz-adv-x="1002" d="M97 558q0 263 138 425q147 173 413 173q188 0 280 -59l-35 -174q-89 63 -256 63q-131 0 -219 -90q-109 -113 -109 -330q0 -187 88.5 -301.5t233.5 -114.5q114 0 224 44q29 11 48 23l45 -125q-117 -108 -350 -108q-234 0 -371 165q-130 156 -130 409z" />
<glyph unicode="d" horiz-adv-x="1237" d="M97 528q0 279 156 452q158 176 415 176q99 0 186 -29l-3 62v475h220v-1680h-95q-59 0 -78 12q-35 21 -35 76v40q-128 -128 -317 -128q-191 0 -314 134q-135 146 -135 410zM321 556q0 -399 286 -399q126 0 244 92v697q-57 50 -205 50q-142 0 -230 -112q-95 -121 -95 -328z " />
<glyph unicode="e" horiz-adv-x="1123" d="M97 572q0 257 129 414q140 170 386 170q175 0 286 -106q122 -119 128 -324q0 -152 -11 -204h-703q15 -296 218 -354q61 -18 110 -18t89.5 5t80.5 13q93 20 135 44l42 -126q-83 -68 -278 -94q-56 -8 -107 -8q-242 0 -374 156q-131 154 -131 432zM317 668h503q1 22 1 44 q0 288 -227 288q-241 0 -277 -332z" />
<glyph unicode="f" horiz-adv-x="811" d="M75 974v122l173 44v99q0 300 224 404q85 39 178.5 39t152.5 -22v-174q-60 20 -134 20t-103.5 -13.5t-51.5 -40.5q-46 -56 -46 -163v-149h282v-166h-282v-974h-220v974h-173z" />
<glyph unicode="g" horiz-adv-x="1217" d="M110 -202.5q0 64.5 14.5 100.5t37.5 66q40 51 107 88q-88 50 -88 171q2 57 38 115.5t102 103.5q-91 48 -144 130t-53 186t34.5 177t95.5 121q124 100 337 100q157 0 272 -69q91 61 213 61h111v-175h-209q51 -87 51 -190t-35.5 -176t-97.5 -123q-124 -100 -326 -100 q-68 0 -124 13q-64 -46 -64 -114q0 -64 22 -82q35 -28 108 -28h207q238 0 340 -100q80 -78 80 -218q0 -167 -163 -273q-155 -99 -391 -99q-342 0 -441 187q-34 63 -34 127.5zM324 -155q0 -159 145 -197q51 -14 121 -14t130.5 11t107.5 33q101 46 101 129q0 100 -55 143 q-64 50 -227 50h-102q-105 0 -148 7q-73 -63 -73 -162zM343 784q0 -60 13 -103.5t41 -76.5q61 -73 178 -73q176 0 219 123q16 45 16 113q0 240 -225 240q-170 0 -222 -117q-20 -46 -20 -106z" />
<glyph unicode="h" horiz-adv-x="1289" d="M176 0v1664h220v-475l-10 -162q113 82 275 117q64 13 134.5 13t134.5 -24t106 -80q83 -109 83 -358v-695h-220v711q0 146 -45 203q-47 60 -155 60q-110 0 -231 -61q-38 -19 -72 -44v-869h-220z" />
<glyph unicode="i" horiz-adv-x="606" d="M155 1468.5q0 46.5 14 75t37 49.5q49 45 98 45t75.5 -10.5t43.5 -29.5q35 -36 35 -83t-13.5 -75.5t-36 -49t-52 -32t-59 -11.5t-55 9.5t-45.5 27.5q-42 38 -42 84.5zM193 0v1138h220v-1138h-220z" />
<glyph unicode="j" horiz-adv-x="574" d="M-79 -331q44 -22 103 -22t89 19.5t47 57.5q33 72 33 228v1186h220v-1101q0 -424 -202 -515q-66 -29 -165 -29t-125 13v163zM152 1468.5q0 46.5 14 75t37 49.5q49 45 98 45t75.5 -10.5t43.5 -29.5q35 -36 35 -83t-13.5 -75.5t-36 -49t-52 -32t-59 -11.5t-55 9.5 t-45.5 27.5q-42 38 -42 84.5z" />
<glyph unicode="k" horiz-adv-x="1163" d="M168 0v1661h220v-910l-4 -112l455 501h259l-430 -449l483 -691h-250l-377 541l-141 -147l5 -171v-223h-220z" />
<glyph unicode="l" horiz-adv-x="613" d="M197 0v1664h220v-1664h-220z" />
<glyph unicode="m" horiz-adv-x="1972" d="M176 0v1138h196l1 -120q125 86 280 124q65 15 146 15q189 0 257 -143q120 91 288 129q63 14 137 14t137 -21t104 -74q80 -102 80 -348v-714h-220v711q0 148 -38 203q-41 60 -148 60q-158 0 -301 -103q9 -69 9 -157v-714h-220v711q0 148 -38 203q-41 60 -148 60 q-109 0 -230 -61q-38 -19 -72 -44v-869h-220z" />
<glyph unicode="n" horiz-adv-x="1279" d="M176 0v1138h196l1 -120q125 86 284 124q66 15 138 15t134 -21.5t103 -74.5q77 -101 77 -351v-710h-220v711q0 150 -40 207q-40 58 -144 58q-113 0 -237 -63q-38 -19 -72 -44v-869h-220z" />
<glyph unicode="o" horiz-adv-x="1213" d="M96 577q0 281 152 435q142 144 368 144q258 0 389 -183q112 -157 112 -418q0 -271 -153 -427q-140 -144 -382 -144q-123 0 -218 50q-268 138 -268 543zM319 591q0 -194 73 -322.5t214 -128.5t214.5 107.5t73.5 308.5q0 304 -156 406q-56 36 -135 36q-138 0 -211 -105 t-73 -302z" />
<glyph unicode="p" horiz-adv-x="1238" d="M166 -506v1646h199v-123q57 60 104 85q100 54 206 54t187.5 -33t143.5 -101q135 -146 135 -410q0 -279 -156 -452q-75 -84 -180.5 -130t-221 -46t-200.5 29l3 -152v-367h-220zM386 195q58 -51 205 -51q143 0 231 112q95 121 95 336q0 391 -287 391q-124 0 -244 -93v-695z " />
<glyph unicode="q" horiz-adv-x="1237" d="M97 528q0 279 156 452q158 176 415 176q139 0 247 -47l158 31v-1646h-220v367l6 246q-123 -123 -313 -123q-191 0 -314 134q-135 146 -135 410zM321 556q0 -399 286 -399q126 0 246 93v695q-56 51 -207 51q-142 0 -230 -112q-95 -121 -95 -328z" />
<glyph unicode="r" horiz-adv-x="819" d="M168 0v1138h185l14 -126q66 87 213 130q48 15 112 15t95 -14v-206q-54 27 -150 27q-143 0 -249 -95v-869h-220z" />
<glyph unicode="s" horiz-adv-x="977" d="M112 65l33 164q68 -45 213 -71q59 -11 134 -11t127.5 36.5t52.5 103.5q0 89 -144 160q-42 21 -100.5 46t-117.5 59q-191 113 -191 302q0 146 123 228q110 74 289 74q136 0 249 -42q27 -10 40 -17l-36 -166q-48 40 -168 57q-38 6 -78 6q-106 0 -161 -33.5t-55 -82 t14.5 -77.5t43.5 -53q47 -41 133.5 -76t146 -66.5t108.5 -73.5q109 -96 109 -229q0 -154 -109 -237q-105 -82 -293 -82q-172 0 -305 52q-38 14 -58 29z" />
<glyph unicode="t" horiz-adv-x="850" d="M80 974v119q37 11 65 18.5t48 16.5q40 19 55 58.5t30.5 92t36.5 121.5h132v-260h322v-166h-322v-577q0 -161 18 -193t42.5 -38t56 -6t59.5 4t55 10q63 14 90 29l38 -126q-81 -60 -226 -85q-46 -8 -95 -8t-97 12t-84 44q-76 69 -76 233v701h-148z" />
<glyph unicode="u" horiz-adv-x="1249" d="M170 474v666h220v-665q0 -200 48 -261q25 -31 65 -40t84 -9t81 8t72 20q69 24 113 52v895h220v-1156h-85q-59 0 -77 12q-33 21 -33 76v28q-121 -76 -272 -106q-51 -10 -128.5 -10t-144 35.5t-103.5 100.5q-60 106 -60 354z" />
<glyph unicode="v" horiz-adv-x="1113" d="M19 1140h237l226 -649l84 -272l77 272l217 649h234l-438 -1156h-185z" />
<glyph unicode="w" horiz-adv-x="1632" d="M21 1140h220l184 -684l50 -214l46 213l190 685h219l189 -684l49 -218l50 211l178 691h215l-348 -1156h-203l-204 745l-37 182l-40 -182l-201 -745h-209z" />
<glyph unicode="x" horiz-adv-x="1134" d="M47 1140h250l250 -378l25 -42l21 44l251 376h247l-405 -558l414 -582h-255l-250 379l-34 55l-28 -58l-232 -376h-251l401 578z" />
<glyph unicode="y" horiz-adv-x="1116" d="M44 1140h235l252 -768l58 -186l267 954h237l-384 -1176q-129 -391 -358 -456q-57 -15 -129 -15t-91 14v179q29 -11 78 -11t90 12.5t83 48.5q97 83 140 264h-65z" />
<glyph unicode="z" horiz-adv-x="1061" d="M82 82l610 890h-550v168h812l35 -95l-609 -885h589v-160h-845z" />
<glyph unicode="{" horiz-adv-x="972" d="M75 706v142q87 9 145 36q107 49 107 91v511q0 147 41.5 201.5t141.5 54.5t292 -24v-122h-266v-620q0 -89 -130 -152q-54 -25 -111 -48q241 -96 241 -204v-621h266v-112q-126 -35 -230.5 -35t-142.5 12.5t-61 41.5q-41 55 -41 202v511q0 43 -88 85q-84 42 -164 50z" />
<glyph unicode="|" horiz-adv-x="855" d="M326 -188v1968h203v-1968h-203z" />
<glyph unicode="}" horiz-adv-x="972" d="M170 -49v-112q126 -35 230.5 -35t142.5 12.5t61 41.5q41 55 41 202v511q0 43 88 85q84 42 164 50v142q-87 9 -145 36q-107 49 -107 91v511q0 147 -41.5 201.5t-141.5 54.5t-292 -24v-122h266v-620q0 -89 130 -152q54 -25 111 -48q-241 -96 -241 -204v-621h-266z" />
<glyph unicode="~" horiz-adv-x="1438" d="M216 758q30 78 108 138q97 74 208 74t212.5 -84t171.5 -84q118 0 202 114l103 -99q-53 -138 -201 -186q-52 -17 -108 -17t-93 12.5t-67.5 31.5t-56.5 40.5t-52 40.5q-60 44 -107 44t-75 -9t-51 -24q-36 -23 -79 -81z" />
<glyph />
<glyph unicode="&#xa1;" horiz-adv-x="602" d="M147 1180q0 50 13 81t36 55q48 50 113 50q58 0 101 -43q20 -20 32.5 -49t12.5 -63.5t-13 -65t-36 -53.5q-49 -52 -98 -52t-76 12t-46 33q-39 45 -39 95zM172 -436l24 1274h196l28 -1274h-248z" />
<glyph unicode="&#xa2;" horiz-adv-x="1183" d="M157 558q0 240 115 396q121 167 345 196l6 227h149l-5 -223q150 -11 221 -57l-35 -174q-89 63 -256 63q-131 0 -219 -90q-109 -113 -109 -330q0 -187 88.5 -301.5t233.5 -114.5q114 0 224 44q29 11 48 23l45 -125q-91 -85 -274 -104l-3 -204h-150l4 205q-203 26 -317 185 q-111 153 -111 384z" />
<glyph unicode="&#xa3;" horiz-adv-x="1532" d="M146 80q0 35 16 66t48 54q71 52 198 58q28 62 28 210v288h-181v152h181v137q0 225 124 357q128 136 349 136q208 0 328 -99l-104 -158q-106 91 -247 91q-102 0 -158 -66q-73 -85 -73 -281v-10v-107h353v-152h-352l1 -35v-86.5t-1 -111t-9 -127.5q-17 -129 -67 -183 q47 -8 83.5 -21t75.5 -25q97 -30 198 -30q248 0 248 196q0 84 -51 133q-13 13 -25 17l156 80q75 -42 115 -159q13 -41 13 -87q0 -337 -430 -337q-158 0 -324 60q-61 22 -101.5 37.5t-58.5 15.5t-25 -1q-53 -60 -141 -86q-29 -8 -52.5 -8t-42.5 6t-35 16q-37 25 -37 60z" />
<glyph unicode="&#xa4;" horiz-adv-x="1527" d="M199 308l206 206q-83 117 -83 259.5t82 256.5l-205 205l126 128l210 -212q105 64 229 64q120 0 229 -64l215 214l127 -127l-209 -209q81 -115 81 -256t-81 -256l205 -205l-127 -127l-210 210q-105 -64 -230 -64q-124 0 -227 62l-211 -212zM499 773q0 -114 78 -196 t188 -82q109 0 187 82q77 81 77 196t-77 195q-78 82 -187 82q-110 0 -188 -82q-78 -81 -78 -195z" />
<glyph unicode="&#xa5;" horiz-adv-x="1532" d="M164 1522h238l304 -525l64 -134l62 141l312 518h233l-457 -712h319v-143h-360v-231h360v-143h-360v-293h-220v293h-385v143h385v231h-385v143h336z" />
<glyph unicode="&#xa6;" horiz-adv-x="855" d="M326 -186v827h203v-827h-203zM326 950v830h203v-830h-203z" />
<glyph unicode="&#xa7;" horiz-adv-x="1358" d="M215 767q0 170 139 309q-128 108 -128 256q0 234 253 312q94 29 188 29t152 -6.5t103 -16.5q84 -20 135 -50l-42 -166q-106 75 -328 75q-178 0 -239 -83q-22 -29 -22 -76t31 -88.5t81.5 -76.5t115 -66t131.5 -64t131.5 -70.5t115.5 -84.5q112 -106 112 -253.5 t-113 -280.5q101 -88 101 -216q0 -235 -266 -313q-102 -30 -198.5 -30t-161.5 8.5t-120 22.5q-110 26 -161 62l42 166q81 -61 249 -86q60 -9 122.5 -9t114.5 8.5t92 27.5q88 42 88 123q0 83 -113 150q-50 30 -114.5 57t-131.5 55.5t-131.5 62t-114.5 77.5q-113 98 -113 235z M416 818q0 -65 21.5 -103.5t58.5 -69t85.5 -55t102.5 -47.5t110.5 -45.5t108.5 -48.5q42 104 42 161.5t-20.5 97.5t-56 73t-82 60.5t-99 53t-108 50.5t-107.5 53q-56 -115 -56 -180z" />
<glyph unicode="&#xa8;" horiz-adv-x="863" d="M60 1479.5q0 44.5 13.5 71.5t35.5 47q47 44 93.5 44t71 -10t40.5 -28q31 -35 31 -80t-13 -72.5t-34 -47t-49 -30.5t-56.5 -11t-52.5 9t-42 26q-38 37 -38 81.5zM518 1479.5q0 44.5 13.5 71.5t34.5 47q46 44 93.5 44t72 -10t40.5 -28q31 -35 31 -80t-13 -72.5t-34 -47 t-49 -30.5t-56.5 -11t-52.5 9t-42 26q-38 37 -38 81.5z" />
<glyph unicode="&#xa9;" horiz-adv-x="2129" d="M194 962q0 122 30.5 234.5t87 210t135.5 177.5t175 137q202 119 442 119q239 0 442 -119q197 -116 311 -315q118 -205 118 -443q0 -239 -118 -445q-176 -308 -520 -404q-112 -32 -233 -32q-238 0 -442 120q-195 115 -310 316q-118 204 -118 444zM336 962.5 q0 -103.5 25 -199t71 -179.5t111 -152.5t146 -117.5q170 -103 375 -103t375 103q250 151 328 450q25 95 25 198.5t-25 199.5t-71 179.5t-111 152t-146 117.5q-170 103 -375 103t-375 -103q-251 -152 -328 -449q-25 -96 -25 -199.5zM621 956q0 219 127 352q136 142 369 142 q134 0 238 -56l-32 -164q-98 63 -225 63q-134 0 -210 -93q-73 -89 -73 -229q0 -159 77 -249q74 -86 206 -86t237 61l45 -124q-113 -94 -319 -94q-200 0 -323 145q-117 138 -117 332z" />
<glyph unicode="&#xaa;" horiz-adv-x="1034" d="M126 925q0 179 180 251q154 56 372 56v64q0 95 -50 125q-37 23 -106.5 23t-111 -8.5t-80.5 -20.5q-85 -26 -122 -51l-56 121q35 32 116 60q157 54 249 54t156 -14.5t109 -48.5q94 -73 94 -234v-615h-71q-67 0 -84 7q-32 12 -32 65v14q-59 -62 -175 -87q-40 -9 -95.5 -9 t-111.5 16t-96 47q-85 67 -85 185zM320 939q0 -84 90 -108q26 -7 60 -7t68.5 7.5t63.5 17.5q51 18 75 39l1 -1v223q-146 0 -194.5 -10.5t-84.5 -27.5q-79 -39 -79 -133z" />
<glyph unicode="&#xab;" horiz-adv-x="1936" d="M245 519v184l643 430l57 -163l-485 -356l485 -351l-57 -159zM976 519v184l643 430l57 -163l-485 -356l485 -351l-57 -159z" />
<glyph unicode="&#xac;" horiz-adv-x="1470" d="M240 688v164h990v-529h-200v365h-790z" />
<glyph unicode="&#xad;" horiz-adv-x="1350" d="M250 683v177h850v-177h-850z" />
<glyph unicode="&#xae;" horiz-adv-x="2129" d="M194 962q0 122 30.5 234.5t87 210t135.5 177.5t175 137q202 119 442 119q239 0 442 -119q197 -116 311 -315q118 -205 118 -443q0 -239 -118 -445q-176 -308 -520 -404q-112 -32 -233 -32q-238 0 -442 120q-195 115 -310 316q-118 204 -118 444zM336 962.5 q0 -103.5 25 -199t71 -179.5t111 -152.5t146 -117.5q170 -103 375 -103t375 103q250 151 328 450q25 95 25 198.5t-25 199.5t-71 179.5t-111 152t-146 117.5q-170 103 -375 103t-375 -103q-251 -152 -328 -449q-25 -96 -25 -199.5zM738 479v962h77l258 7q180 0 275 -82 q84 -72 84 -192q0 -242 -193 -300q61 -47 120 -170q29 -62 44 -85t27 -41q25 -39 65 -99l-204 1q-48 61 -87.5 154t-59.5 125q-49 75 -105 90q-20 -1 -53 -1h-71v-369h-177zM915 980q44 -4 81 -4h49q101 0 152 39t51 136q0 85 -44 123q-25 21 -65.5 31.5t-109.5 10.5 t-114 -11v-325z" />
<glyph unicode="&#xaf;" horiz-adv-x="647" d="M50 1425v163h547v-163h-547z" />
<glyph unicode="&#xb0;" horiz-adv-x="912" d="M116 1278q0 146 99 243q98 96 241 96t241 -97q99 -97 99 -242q0 -146 -99 -243q-98 -96 -241 -96q-142 0 -240 97q-100 97 -100 242zM272 1278q0 -82 54 -140q52 -55 130 -55t131 55q54 56 54 140q0 83 -54 139q-53 55 -131 55q-77 0 -130 -54q-54 -56 -54 -140z" />
<glyph unicode="&#xb1;" horiz-adv-x="1393" d="M229 685v177h220l165 -11l-7 172v228h178v-228l-8 -172l141 11h246v-177h-246l-141 7l8 -171v-236h-178v236l7 171l-165 -7h-220zM250 0v165h892v-165h-892z" />
<glyph unicode="&#xb2;" horiz-adv-x="1194" d="M175 1494q89 126 270 175q63 17 146 17t151.5 -26.5t112.5 -69.5q86 -84 86 -208q0 -298 -403 -557l458 5v-165h-748l-43 110q154 79 317 226q205 186 205 343q0 183 -186 183q-154 0 -275 -142z" />
<glyph unicode="&#xb3;" horiz-adv-x="1194" d="M262 1586q91 75 250 99q40 6 95 6t118.5 -19t104.5 -52q82 -63 82 -167q0 -180 -208 -270q132 -6 208 -85q69 -71 69 -157t-25.5 -150t-79.5 -111q-117 -102 -338 -102q-72 0 -209 28l-14 142q109 -21 222 -20q233 2 233 193q0 122 -128 164q-39 13 -87 16l-88 -28 l-37 128q59 11 136.5 45t111 75.5t33.5 97.5q0 96 -97 120q-29 7 -57 7t-57 -5.5t-60 -16.5q-66 -22 -116 -57z" />
<glyph unicode="&#xb4;" horiz-adv-x="594" d="M50 1384q243 266 338 399l156 -135q-34 -60 -182 -198q-146 -135 -201 -156z" />
<glyph unicode="&#xb5;" horiz-adv-x="1360" d="M210 -371v1511h219v-741q0 -195 137 -230q47 -12 124 -12t203 88v895h220v-906q0 -64 19 -73q7 -3 28 -3t65 27l31 -98q-33 -53 -136 -91q-37 -14 -77 -14q-120 0 -120 124v14q-54 -60 -92 -84q-82 -52 -176.5 -52t-160.5 22.5t-111 81.5l32 -459h-205z" />
<glyph unicode="&#xb6;" horiz-adv-x="1320" d="M83 1248q0 214 145 336q151 127 429 127l469 -20v-1691h-184v1548h-241v-1548h-184v777q-434 0 -434 471z" />
<glyph unicode="&#xb7;" horiz-adv-x="602" d="M147 718.5q0 34.5 13 65t36 53.5q49 52 98.5 52t76.5 -12t45 -33q39 -44 39 -94.5t-12.5 -81.5t-34.5 -55q-49 -50 -115 -50q-57 0 -100 43q-20 20 -33 49t-13 63.5z" />
<glyph unicode="&#xb8;" horiz-adv-x="485" d="M47 -436l15 142q23 -14 82 -14q132 0 132 214q0 70 -25 124l83 4l43 -4q59 -62 59 -210q0 -221 -158 -271q-41 -13 -72.5 -13t-54 2t-42.5 6q-46 9 -62 20z" />
<glyph unicode="&#xb9;" horiz-adv-x="1026" d="M222 1496q123 36 294 151q40 27 58 42l105 -25v-1001h-211v763l-206 -51z" />
<glyph unicode="&#xba;" horiz-adv-x="1033" d="M111 1143q0 230 141 355q114 101 281 101q188 0 291 -130q98 -122 98 -330q0 -234 -132 -358q-110 -104 -289 -104q-86 0 -161 33q-150 68 -204 246q-25 84 -25 187zM319 1151q0 -232 117 -304q36 -22 83.5 -22t84.5 17.5t61 53.5q49 75 49 233q0 235 -109 302 q-34 21 -57.5 21t-46.5 -0.5t-60 -17t-64 -52.5q-58 -76 -58 -231z" />
<glyph unicode="&#xbb;" horiz-adv-x="1936" d="M259 263l57 -159l643 415v184l-643 430l-57 -163l485 -356zM990 263l57 -159l643 415v184l-643 430l-57 -163l485 -356z" />
<glyph unicode="&#xbc;" horiz-adv-x="2479" d="M245 1496q123 36 294 151q40 27 58 42l105 -25v-1001h-211v763l-206 -51zM748 0l539 1530h200l-542 -1530h-197zM1321 329l482 811h68l131 -77l-396 -608l-42 -69h308v3l8 249l195 20v-272h194l1 -151h-195v-282h-204v282h-498z" />
<glyph unicode="&#xbd;" horiz-adv-x="2479" d="M245 1496q123 36 294 151q40 27 58 42l105 -25v-1001h-211v763l-206 -51zM749 0l539 1530h200l-542 -1530h-197zM1462 827q89 126 270 175q63 17 146 17t151.5 -26.5t112.5 -69.5q86 -84 86 -208q0 -298 -403 -557l458 5v-165h-748l-43 110q154 79 317 226 q205 186 205 343q0 183 -186 183q-154 0 -275 -142z" />
<glyph unicode="&#xbe;" horiz-adv-x="2479" d="M116 1586q91 75 250 99q40 6 95 6t118.5 -19t104.5 -52q82 -63 82 -167q0 -180 -208 -270q132 -6 208 -85q69 -71 69 -157t-25.5 -150t-79.5 -111q-117 -102 -338 -102q-72 0 -209 28l-14 142q109 -21 222 -20q233 2 233 193q0 122 -128 164q-39 13 -87 16l-88 -28 l-37 128q59 11 136.5 45t111 75.5t33.5 97.5q0 96 -97 120q-29 7 -57 7t-57 -5.5t-60 -16.5q-66 -22 -116 -57zM748 0l539 1530h200l-542 -1530h-197zM1321 329l482 811h68l131 -77l-396 -608l-42 -69h308v3l8 249l195 20v-272h194l1 -151h-195v-282h-204v282h-498z" />
<glyph unicode="&#xbf;" horiz-adv-x="1047" d="M113 159q0 55 12 120t48 119t83.5 95.5t99 74t95.5 64.5q102 72 108 143q2 20 2 36t-1.5 37t-7.5 51q-7 30 -37 131h167q55 -65 80 -191q9 -47 9 -94.5t-27.5 -90t-72.5 -80.5t-98.5 -71.5t-102.5 -68.5q-114 -81 -127 -153q-14 -57 -14 -100q0 -216 217 -284 q86 -27 202 -27t177 17v-160q-31 -23 -105 -32.5t-111 -9.5q-340 0 -495 183q-101 119 -101 291zM411 1364q0 49 12.5 79.5t34.5 53.5q47 49 112 49q89 0 130 -90q13 -28 13 -61t-13 -63t-36 -53q-48 -50 -96 -50t-74.5 12t-44.5 32q-38 42 -38 91z" />
<glyph unicode="&#xc0;" horiz-adv-x="1407" d="M21 0l582 1538h215l568 -1538h-241l-130 385h-622l-136 -385h-236zM342 1847l146 133q5 -16 147.5 -141.5t168 -149t27.5 -24.5l-92 -92q-100 33 -281 171q-81 62 -116 103zM452 551h507l-204 609l-43 142l-44 -142z" />
<glyph unicode="&#xc1;" horiz-adv-x="1407" d="M21 0l582 1538h215l568 -1538h-241l-130 385h-622l-136 -385h-236zM452 551h507l-204 609l-43 142l-44 -142zM574 1665q2 1 27.5 24.5t63.5 57t81.5 73t81.5 74.5q87 80 89 86l146 -133q-119 -123 -299 -227q-54 -32 -97 -47z" />
<glyph unicode="&#xc2;" horiz-adv-x="1407" d="M21 0l582 1538h215l568 -1538h-241l-130 385h-622l-136 -385h-236zM344 1689l259 301h197l262 -298l-144 -60l-216 202l-221 -202zM452 551h507l-204 609l-43 142l-44 -142z" />
<glyph unicode="&#xc3;" horiz-adv-x="1407" d="M21 0l582 1538h215l568 -1538h-241l-130 385h-622l-136 -385h-236zM286 1771q35 84 119 140q81 55 151.5 55t109 -21.5t69 -48t58.5 -48t66 -21.5q88 0 175 99l86 -71q-35 -84 -119 -139q-82 -55 -162 -55q-68 0 -107.5 26.5t-59.5 45.5t-39 35q-44 37 -87 37 q-85 0 -175 -102zM452 551h507l-204 609l-43 142l-44 -142z" />
<glyph unicode="&#xc4;" horiz-adv-x="1407" d="M21 0l582 1538h215l568 -1538h-241l-130 385h-622l-136 -385h-236zM306 1787q0 46 13.5 74.5t36.5 48.5q48 45 96 45t74 -10.5t43 -28.5q34 -36 34 -83t-13 -75t-35.5 -48.5t-51.5 -31.5t-58.5 -11t-54.5 9t-44 26q-40 39 -40 85zM452 551h507l-204 609l-43 142l-44 -142 zM802 1787q0 46 13.5 74.5t36.5 48.5q48 45 96 45t74 -10.5t43 -28.5q34 -36 34 -83t-13 -75t-35.5 -48.5t-51.5 -31.5t-58.5 -11t-54.5 9t-44 26q-40 39 -40 85z" />
<glyph unicode="&#xc5;" horiz-adv-x="1407" d="M21 0l550 1453q-90 27 -140 91.5t-50 156.5q0 137 103 209q85 60 217 60q230 0 299 -150q22 -49 21 -131t-49.5 -142.5t-124.5 -87.5l539 -1459h-241l-130 385h-622l-136 -385h-236zM452 551h507l-204 609l-43 142l-44 -142zM537 1712q0 -71 43.5 -110t118.5 -41 q169 0 169 145q0 101 -102 131q-31 9 -64 9t-62 -6t-52 -22q-51 -35 -51 -106z" />
<glyph unicode="&#xc6;" horiz-adv-x="1860" d="M-73 0l725 1522h1061v-172h-653v-480h479v-172h-479v-523h726v-175h-949v385h-481l-183 -385h-246zM435 551h402v825h-10z" />
<glyph unicode="&#xc7;" horiz-adv-x="1313" d="M95 753q0 364 212 581q97 100 224.5 152t241 52t179 -7t113.5 -16.5t80.5 -19t52.5 -14.5l-32 -198q-136 74 -352 74q-230 0 -364 -159t-134 -430t132 -438q136 -170 365 -170q177 0 315 58q39 17 59 35l1 -189q-128 -51 -199 -63t-129 -15q30 -65 30 -164 q0 -223 -158 -273q-41 -13 -72.5 -13t-54 2t-42.5 6q-46 9 -62 20l15 142q23 -14 82 -14q132 0 132 219q0 43 -10 77q-286 28 -456 234q-169 207 -169 531z" />
<glyph unicode="&#xc8;" horiz-adv-x="1217" d="M194 0v1522h876v-172h-653v-480h479v-172h-479v-523h726v-175h-949zM320 1847l146 133q5 -16 147.5 -141.5t168 -149t27.5 -24.5l-92 -92q-100 33 -281 171q-81 62 -116 103z" />
<glyph unicode="&#xc9;" horiz-adv-x="1217" d="M194 0v1522h876v-172h-653v-480h479v-172h-479v-523h726v-175h-949zM552 1665q2 1 27.5 24.5t63.5 57t81.5 73t81.5 74.5q87 80 89 86l146 -133q-119 -123 -299 -227q-54 -32 -97 -47z" />
<glyph unicode="&#xca;" horiz-adv-x="1217" d="M194 0v1522h876v-172h-653v-480h479v-172h-479v-523h726v-175h-949zM322 1689l259 301h197l262 -298l-144 -60l-216 202l-221 -202z" />
<glyph unicode="&#xcb;" horiz-adv-x="1217" d="M194 0v1522h876v-172h-653v-480h479v-172h-479v-523h726v-175h-949zM284 1787q0 46 13.5 74.5t36.5 48.5q48 45 96 45t74 -10.5t43 -28.5q34 -36 34 -83t-13 -75t-35.5 -48.5t-51.5 -31.5t-58.5 -11t-54.5 9t-44 26q-40 39 -40 85zM780 1787q0 46 13.5 74.5t36.5 48.5 q48 45 96 45t74 -10.5t43 -28.5q34 -36 34 -83t-13 -75t-35.5 -48.5t-51.5 -31.5t-58.5 -11t-54.5 9t-44 26q-40 39 -40 85z" />
<glyph unicode="&#xcc;" horiz-adv-x="640" d="M-38 1847l146 133q5 -16 147.5 -141.5t168 -149t27.5 -24.5l-92 -92q-100 33 -281 171q-81 62 -116 103zM207 0v1522h226v-1522h-226z" />
<glyph unicode="&#xcd;" horiz-adv-x="640" d="M193 1665q2 1 27.5 24.5t63.5 57t81.5 73t81.5 74.5q87 80 89 86l146 -133q-119 -123 -299 -227q-54 -32 -97 -47zM207 0v1522h226v-1522h-226z" />
<glyph unicode="&#xce;" horiz-adv-x="640" d="M-36 1689l259 301h197l262 -298l-144 -60l-216 202l-221 -202zM207 0v1522h226v-1522h-226z" />
<glyph unicode="&#xcf;" horiz-adv-x="640" d="M-74 1787q0 46 13.5 74.5t36.5 48.5q48 45 96 45t74 -10.5t43 -28.5q34 -36 34 -83t-13 -75t-35.5 -48.5t-51.5 -31.5t-58.5 -11t-54.5 9t-44 26q-40 39 -40 85zM207 0v1522h226v-1522h-226zM422 1787q0 46 13.5 74.5t36.5 48.5q48 45 96 45t74 -10.5t43 -28.5 q34 -36 34 -83t-13 -75t-35.5 -48.5t-51.5 -31.5t-58.5 -11t-54.5 9t-44 26q-40 39 -40 85z" />
<glyph unicode="&#xd0;" horiz-adv-x="1472" d="M66 720v149h128v653h112l360 16q361 0 544 -194q178 -187 178 -540q0 -388 -200 -608q-194 -212 -528 -212l-381 16h-85v720h-128zM418 168q79 -19 259 -19q342 7 443 341q36 117 36 283.5t-34.5 282t-102.5 187t-169.5 103t-229 31.5t-202.5 -16v-492h394v-149h-394 v-552z" />
<glyph unicode="&#xd1;" horiz-adv-x="1556" d="M193 0v1522h204l651 -1005l123 -226l-13 254v977h205v-1522h-207l-630 967l-140 249l12 -264v-952h-205zM376 1771q35 84 119 140q81 55 151.5 55t109 -21.5t69 -48t58.5 -48t66 -21.5q88 0 175 99l86 -71q-35 -84 -119 -139q-82 -55 -162 -55q-68 0 -107.5 26.5 t-59.5 45.5t-39 35q-44 37 -87 37q-85 0 -175 -102z" />
<glyph unicode="&#xd2;" horiz-adv-x="1569" d="M100 751q0 200 58.5 349t154.5 245q193 193 495 193q304 0 485 -212q176 -205 176 -543q0 -383 -197.5 -591t-504.5 -208t-487 214.5t-180 552.5zM325 758q0 -253 116 -420q127 -183 358 -183q90 0 174.5 40t144.5 118q125 163 125 459q0 254 -111 418q-122 178 -331 178 q-206 0 -335 -148q-141 -164 -141 -462zM448 1847l146 133q5 -16 147.5 -141.5t168 -149t27.5 -24.5l-92 -92q-100 33 -281 171q-81 62 -116 103z" />
<glyph unicode="&#xd3;" horiz-adv-x="1569" d="M100 751q0 200 58.5 349t154.5 245q193 193 495 193q304 0 485 -212q176 -205 176 -543q0 -383 -197.5 -591t-504.5 -208t-487 214.5t-180 552.5zM325 758q0 -253 116 -420q127 -183 358 -183q90 0 174.5 40t144.5 118q125 163 125 459q0 254 -111 418q-122 178 -331 178 q-206 0 -335 -148q-141 -164 -141 -462zM680 1665q2 1 27.5 24.5t63.5 57t81.5 73t81.5 74.5q87 80 89 86l146 -133q-119 -123 -299 -227q-54 -32 -97 -47z" />
<glyph unicode="&#xd4;" horiz-adv-x="1569" d="M100 751q0 200 58.5 349t154.5 245q193 193 495 193q304 0 485 -212q176 -205 176 -543q0 -383 -197.5 -591t-504.5 -208t-487 214.5t-180 552.5zM325 758q0 -253 116 -420q127 -183 358 -183q90 0 174.5 40t144.5 118q125 163 125 459q0 254 -111 418q-122 178 -331 178 q-206 0 -335 -148q-141 -164 -141 -462zM450 1689l259 301h197l262 -298l-144 -60l-216 202l-221 -202z" />
<glyph unicode="&#xd5;" horiz-adv-x="1569" d="M100 751q0 200 58.5 349t154.5 245q193 193 495 193q304 0 485 -212q176 -205 176 -543q0 -383 -197.5 -591t-504.5 -208t-487 214.5t-180 552.5zM325 758q0 -253 116 -420q127 -183 358 -183q90 0 174.5 40t144.5 118q125 163 125 459q0 254 -111 418q-122 178 -331 178 q-206 0 -335 -148q-141 -164 -141 -462zM392 1771q35 84 119 140q81 55 151.5 55t109 -21.5t69 -48t58.5 -48t66 -21.5q88 0 175 99l86 -71q-35 -84 -119 -139q-82 -55 -162 -55q-68 0 -107.5 26.5t-59.5 45.5t-39 35q-44 37 -87 37q-85 0 -175 -102z" />
<glyph unicode="&#xd6;" horiz-adv-x="1569" d="M100 751q0 200 58.5 349t154.5 245q193 193 495 193q304 0 485 -212q176 -205 176 -543q0 -383 -197.5 -591t-504.5 -208t-487 214.5t-180 552.5zM325 758q0 -253 116 -420q127 -183 358 -183q90 0 174.5 40t144.5 118q125 163 125 459q0 254 -111 418q-122 178 -331 178 q-206 0 -335 -148q-141 -164 -141 -462zM412 1787q0 46 13.5 74.5t36.5 48.5q48 45 96 45t74 -10.5t43 -28.5q34 -36 34 -83t-13 -75t-35.5 -48.5t-51.5 -31.5t-58.5 -11t-54.5 9t-44 26q-40 39 -40 85zM908 1787q0 46 13.5 74.5t36.5 48.5q48 45 96 45t74 -10.5t43 -28.5 q34 -36 34 -83t-13 -75t-35.5 -48.5t-51.5 -31.5t-58.5 -11t-54.5 9t-44 26q-40 39 -40 85z" />
<glyph unicode="&#xd7;" horiz-adv-x="1370" d="M234 439l338 335l-338 345l130 128l322 -354l322 354l130 -128l-338 -342l338 -338l-130 -128l-322 343l-322 -343z" />
<glyph unicode="&#xd8;" horiz-adv-x="1569" d="M100 697q0 254 58.5 403t154.5 245t223 144.5t246 48.5t203 -22l80 222l125 -36l-83 -231q267 -134 340 -471q22 -102 22 -166q0 -252 -55.5 -401.5t-147.5 -246.5q-192 -202 -503 -202q-99 0 -183 24l-75 -208l-125 36l79 219q-265 140 -339 483q-20 98 -20 159z M325 758q0 -249 114 -417q38 -56 88 -97l398 1105q-61 19 -140.5 19t-166 -36.5t-152.5 -111.5q-141 -164 -141 -462zM641 179q66 -24 157 -24t175.5 40t144.5 118q125 163 125 459q0 255 -114 422q-38 55 -88 94z" />
<glyph unicode="&#xd9;" horiz-adv-x="1463" d="M159 633v889h223l-1 -836q0 -300 96 -422q84 -106 271 -106q167 0 244 107q91 125 91 421v836h222v-892q0 -477 -315 -604q-106 -42 -256 -42t-260.5 43.5t-180.5 126.5q-134 159 -134 479zM385 1847l146 133q5 -16 147.5 -141.5t168 -149t27.5 -24.5l-92 -92 q-100 33 -281 171q-81 62 -116 103z" />
<glyph unicode="&#xda;" horiz-adv-x="1463" d="M159 633v889h223l-1 -836q0 -300 96 -422q84 -106 271 -106q167 0 244 107q91 125 91 421v836h222v-892q0 -477 -315 -604q-106 -42 -256 -42t-260.5 43.5t-180.5 126.5q-134 159 -134 479zM617 1665q2 1 27.5 24.5t63.5 57t81.5 73t81.5 74.5q87 80 89 86l146 -133 q-119 -123 -299 -227q-54 -32 -97 -47z" />
<glyph unicode="&#xdb;" horiz-adv-x="1463" d="M159 633v889h223l-1 -836q0 -300 96 -422q84 -106 271 -106q167 0 244 107q91 125 91 421v836h222v-892q0 -477 -315 -604q-106 -42 -256 -42t-260.5 43.5t-180.5 126.5q-134 159 -134 479zM387 1689l259 301h197l262 -298l-144 -60l-216 202l-221 -202z" />
<glyph unicode="&#xdc;" horiz-adv-x="1463" d="M159 633v889h223l-1 -836q0 -300 96 -422q84 -106 271 -106q167 0 244 107q91 125 91 421v836h222v-892q0 -477 -315 -604q-106 -42 -256 -42t-260.5 43.5t-180.5 126.5q-134 159 -134 479zM349 1787q0 46 13.5 74.5t36.5 48.5q48 45 96 45t74 -10.5t43 -28.5 q34 -36 34 -83t-13 -75t-35.5 -48.5t-51.5 -31.5t-58.5 -11t-54.5 9t-44 26q-40 39 -40 85zM845 1787q0 46 13.5 74.5t36.5 48.5q48 45 96 45t74 -10.5t43 -28.5q34 -36 34 -83t-13 -75t-35.5 -48.5t-51.5 -31.5t-58.5 -11t-54.5 9t-44 26q-40 39 -40 85z" />
<glyph unicode="&#xdd;" horiz-adv-x="1264" d="M22 1522h238l338 -660l43 -105l36 105l331 660h234l-493 -929v-593h-226v593zM522 1665q2 1 27.5 24.5t63.5 57t81.5 73t81.5 74.5q87 80 89 86l146 -133q-119 -123 -299 -227q-54 -32 -97 -47z" />
<glyph unicode="&#xde;" horiz-adv-x="1262" d="M194 0v1522h223v-275q159 12 233 12q532 0 532 -466q0 -242 -148 -375q-74 -65 -182.5 -99t-221 -34t-213.5 7v-292h-223zM417 455q60 -8 148.5 -8t157.5 12.5t121 49.5q116 81 116 264t-91.5 254.5t-264.5 71.5q-104 0 -187 -17v-627z" />
<glyph unicode="&#xdf;" horiz-adv-x="1268" d="M36 974v129l153 39q43 222 190 333q137 104 340 104q164 0 267 -71q111 -76 111 -205t-112 -245q-71 -73 -91.5 -110t-20.5 -73.5t15.5 -67.5t41 -58.5t58 -53t67 -53t67 -59.5t58.5 -71q56 -86 56 -188t-34.5 -165t-91.5 -102q-105 -73 -262 -73t-240 33v173 q91 -52 239 -52q112 0 151 79q15 29 14.5 78t-26 90.5t-63.5 77.5t-82.5 71.5t-82.5 79.5q-88 104 -88 237q0 103 104.5 217t104.5 207q0 148 -197 148q-136 0 -206 -101q-82 -115 -82 -374v-948h-220v974h-138z" />
<glyph unicode="&#xe0;" horiz-adv-x="1131" d="M94 323q0 93 60 171q126 164 492 190q56 4 104 4v115q0 115 -60 155q-50 33 -183 33q-115 0 -253 -55q-36 -14 -55 -28l-54 144q86 54 285 92q68 13 146.5 13t153 -14.5t128.5 -54.5q112 -84 112 -294v-810h-90q-64 0 -83 12q-34 23 -34 92v8q-82 -75 -221 -102 q-48 -10 -111.5 -10t-127.5 22t-110.5 63.5t-72.5 101t-26 152.5zM181 1648l157 135q94 -120 338 -399l-111 -90q-59 26 -197.5 153t-186.5 201zM311 324q0 -176 197 -176q109 0 208 57q25 14 34 24v319q-117 0 -199 -20t-111.5 -34t-52.5 -29.5t-40 -36.5q-36 -43 -36 -104 z" />
<glyph unicode="&#xe1;" horiz-adv-x="1131" d="M94 323q0 93 60 171q126 164 492 190q56 4 104 4v115q0 115 -60 155q-50 33 -183 33q-115 0 -253 -55q-36 -14 -55 -28l-54 144q86 54 285 92q68 13 146.5 13t153 -14.5t128.5 -54.5q112 -84 112 -294v-810h-90q-64 0 -83 12q-34 23 -34 92v8q-82 -75 -221 -102 q-48 -10 -111.5 -10t-127.5 22t-110.5 63.5t-72.5 101t-26 152.5zM311 324q0 -176 197 -176q109 0 208 57q25 14 34 24v319q-117 0 -199 -20t-111.5 -34t-52.5 -29.5t-40 -36.5q-36 -43 -36 -104zM436 1384q243 266 338 399l156 -135q-34 -60 -182 -198q-146 -135 -201 -156 z" />
<glyph unicode="&#xe2;" horiz-adv-x="1131" d="M94 323q0 93 60 171q126 164 492 190q56 4 104 4v115q0 115 -60 155q-50 33 -183 33q-115 0 -253 -55q-36 -14 -55 -28l-54 144q86 54 285 92q68 13 146.5 13t153 -14.5t128.5 -54.5q112 -84 112 -294v-810h-90q-64 0 -83 12q-34 23 -34 92v8q-82 -75 -221 -102 q-48 -10 -111.5 -10t-127.5 22t-110.5 63.5t-72.5 101t-26 152.5zM192 1349l276 333h198l268 -332l-135 -56l-232 222l-249 -223zM311 324q0 -176 197 -176q109 0 208 57q25 14 34 24v319q-117 0 -199 -20t-111.5 -34t-52.5 -29.5t-40 -36.5q-36 -43 -36 -104z" />
<glyph unicode="&#xe3;" horiz-adv-x="1131" d="M94 323q0 93 60 171q126 164 492 190q56 4 104 4v115q0 115 -60 155q-50 33 -183 33q-115 0 -253 -55q-36 -14 -55 -28l-54 144q86 54 285 92q68 13 146.5 13t153 -14.5t128.5 -54.5q112 -84 112 -294v-810h-90q-64 0 -83 12q-34 23 -34 92v8q-82 -75 -221 -102 q-48 -10 -111.5 -10t-127.5 22t-110.5 63.5t-72.5 101t-26 152.5zM147 1453q59 129 183 179q42 16 84.5 16t73 -10t54.5 -25.5t44 -33t40 -33.5q44 -35 86 -35q97 0 183 98l86 -72q-63 -134 -183 -178q-41 -15 -85.5 -15t-75.5 10t-55.5 25.5t-43.5 33.5t-38 33 q-44 36 -85 36q-92 0 -183 -97zM311 324q0 -176 197 -176q109 0 208 57q25 14 34 24v319q-117 0 -199 -20t-111.5 -34t-52.5 -29.5t-40 -36.5q-36 -43 -36 -104z" />
<glyph unicode="&#xe4;" horiz-adv-x="1131" d="M94 323q0 93 60 171q126 164 492 190q56 4 104 4v115q0 115 -60 155q-50 33 -183 33q-115 0 -253 -55q-36 -14 -55 -28l-54 144q86 54 285 92q68 13 146.5 13t153 -14.5t128.5 -54.5q112 -84 112 -294v-810h-90q-64 0 -83 12q-34 23 -34 92v8q-82 -75 -221 -102 q-48 -10 -111.5 -10t-127.5 22t-110.5 63.5t-72.5 101t-26 152.5zM195 1479.5q0 44.5 13.5 71.5t35.5 47q47 44 93.5 44t71 -10t40.5 -28q31 -35 31 -80t-13 -72.5t-34 -47t-49 -30.5t-56.5 -11t-52.5 9t-42 26q-38 37 -38 81.5zM311 324q0 -176 197 -176q109 0 208 57 q25 14 34 24v319q-117 0 -199 -20t-111.5 -34t-52.5 -29.5t-40 -36.5q-36 -43 -36 -104zM653 1479.5q0 44.5 13.5 71.5t34.5 47q46 44 93.5 44t72 -10t40.5 -28q31 -35 31 -80t-13 -72.5t-34 -47t-49 -30.5t-56.5 -11t-52.5 9t-42 26q-38 37 -38 81.5z" />
<glyph unicode="&#xe5;" horiz-adv-x="1131" d="M94 323q0 93 60 171q126 164 492 190q56 4 104 4v115q0 115 -60 155q-50 33 -183 33q-115 0 -253 -55q-36 -14 -55 -28l-54 144q86 54 285 92q68 13 146.5 13t153 -14.5t128.5 -54.5q112 -84 112 -294v-810h-90q-64 0 -83 12q-34 23 -34 92v8q-82 -75 -221 -102 q-48 -10 -111.5 -10t-127.5 22t-110.5 63.5t-72.5 101t-26 152.5zM246 1573q0 104 29 155.5t74 83.5q86 61 217 61q230 0 299 -153q22 -50 21.5 -118t-27 -120t-71 -86.5t-103 -51t-126.5 -16.5t-127 20q-119 40 -165 144q-21 50 -21 81zM311 324q0 -176 197 -176 q109 0 208 57q25 14 34 24v319q-117 0 -199 -20t-111.5 -34t-52.5 -29.5t-40 -36.5q-36 -43 -36 -104zM402 1594q0 -54 43.5 -96t99.5 -43t87 7.5t53 26.5q48 38 48 116q0 67 -49 107q-47 37 -120 37q-111 0 -148 -73q-14 -28 -14 -82z" />
<glyph unicode="&#xe6;" horiz-adv-x="1780" d="M94 305q0 212 222 309q174 74 435 74v115q0 115 -55 155q-46 33 -169 33q-114 0 -262 -57q-39 -15 -61 -29l-54 147q84 52 296 92q69 13 131 13t112.5 -6.5t92.5 -22.5q86 -33 126 -114q138 142 362 142q175 0 286 -106q121 -118 127 -324q0 -152 -11 -204h-702 q6 -125 34.5 -192t74.5 -107q83 -72 237 -72q110 0 231 37q37 12 58 24l42 -126q-83 -68 -279 -94q-57 -8 -109 -8q-267 0 -397 178q-151 -178 -413 -178q-156 0 -253 86q-102 88 -102 235zM315 313q0 -165 189 -165q133 0 242 78q33 24 54 53q-42 114 -46 271l-1 -2 q-205 0 -315 -55q-56 -26 -89.5 -64.5t-33.5 -115.5zM975 668h502q1 22 1 44q0 288 -227 288q-240 0 -276 -332z" />
<glyph unicode="&#xe7;" horiz-adv-x="1002" d="M97 558q0 263 138 425q147 173 413 173q188 0 280 -59l-35 -174q-89 63 -256 63q-131 0 -219 -90q-109 -113 -109 -330q0 -187 88.5 -301.5t233.5 -114.5q114 0 224 44q29 11 48 23l45 -125q-99 -93 -301 -106q30 -65 30 -164q0 -223 -158 -273q-41 -13 -72.5 -13t-54 2 t-42.5 6q-46 9 -62 20l15 142q23 -14 82 -14q132 0 132 221q0 45 -10 79q-194 31 -304 188q-106 152 -106 378z" />
<glyph unicode="&#xe8;" horiz-adv-x="1123" d="M97 572q0 257 129 414q140 170 386 170q175 0 286 -106q122 -119 128 -324q0 -152 -11 -204h-703q15 -296 218 -354q61 -18 110 -18t89.5 5t80.5 13q93 20 135 44l42 -126q-83 -68 -278 -94q-56 -8 -107 -8q-242 0 -374 156q-131 154 -131 432zM212 1648l157 135 q94 -120 338 -399l-111 -90q-59 26 -197.5 153t-186.5 201zM317 668h503q1 22 1 44q0 288 -227 288q-241 0 -277 -332z" />
<glyph unicode="&#xe9;" horiz-adv-x="1123" d="M97 572q0 257 129 414q140 170 386 170q175 0 286 -106q122 -119 128 -324q0 -152 -11 -204h-703q15 -296 218 -354q61 -18 110 -18t89.5 5t80.5 13q93 20 135 44l42 -126q-83 -68 -278 -94q-56 -8 -107 -8q-242 0 -374 156q-131 154 -131 432zM317 668h503q1 22 1 44 q0 288 -227 288q-241 0 -277 -332zM467 1384q243 266 338 399l156 -135q-34 -60 -182 -198q-146 -135 -201 -156z" />
<glyph unicode="&#xea;" horiz-adv-x="1123" d="M97 572q0 257 129 414q140 170 386 170q175 0 286 -106q122 -119 128 -324q0 -152 -11 -204h-703q15 -296 218 -354q61 -18 110 -18t89.5 5t80.5 13q93 20 135 44l42 -126q-83 -68 -278 -94q-56 -8 -107 -8q-242 0 -374 156q-131 154 -131 432zM223 1349l276 333h198 l268 -332l-135 -56l-232 222l-249 -223zM317 668h503q1 22 1 44q0 288 -227 288q-241 0 -277 -332z" />
<glyph unicode="&#xeb;" horiz-adv-x="1123" d="M97 572q0 257 129 414q140 170 386 170q175 0 286 -106q122 -119 128 -324q0 -152 -11 -204h-703q15 -296 218 -354q61 -18 110 -18t89.5 5t80.5 13q93 20 135 44l42 -126q-83 -68 -278 -94q-56 -8 -107 -8q-242 0 -374 156q-131 154 -131 432zM226 1479.5 q0 44.5 13.5 71.5t35.5 47q47 44 93.5 44t71 -10t40.5 -28q31 -35 31 -80t-13 -72.5t-34 -47t-49 -30.5t-56.5 -11t-52.5 9t-42 26q-38 37 -38 81.5zM317 668h503q1 22 1 44q0 288 -227 288q-241 0 -277 -332zM684 1479.5q0 44.5 13.5 71.5t34.5 47q46 44 93.5 44t72 -10 t40.5 -28q31 -35 31 -80t-13 -72.5t-34 -47t-49 -30.5t-56.5 -11t-52.5 9t-42 26q-38 37 -38 81.5z" />
<glyph unicode="&#xec;" horiz-adv-x="606" d="M-81 1648l157 135q94 -120 338 -399l-111 -90q-59 26 -197.5 153t-186.5 201zM193 0v1138h220v-1138h-220z" />
<glyph unicode="&#xed;" horiz-adv-x="606" d="M173 1384q243 266 338 399l156 -135q-34 -60 -182 -198q-146 -135 -201 -156zM193 0v1138h220v-1138h-220z" />
<glyph unicode="&#xee;" horiz-adv-x="606" d="M-70 1349l276 333h198l268 -332l-135 -56l-232 222l-249 -223zM193 0v1138h220v-1138h-220z" />
<glyph unicode="&#xef;" horiz-adv-x="606" d="M-56 1479.5q0 44.5 13.5 71.5t35.5 47q47 44 93.5 44t71 -10t40.5 -28q31 -35 31 -80t-13 -72.5t-34 -47t-49 -30.5t-56.5 -11t-52.5 9t-42 26q-38 37 -38 81.5zM193 0v1138h220v-1138h-220zM378 1479.5q0 44.5 13.5 71.5t34.5 47q46 44 93.5 44t72 -10t40.5 -28 q31 -35 31 -80t-13 -72.5t-34 -47t-49 -30.5t-56.5 -11t-52.5 9t-42 26q-38 37 -38 81.5z" />
<glyph unicode="&#xf0;" horiz-adv-x="1190" d="M95 553q0 278 141 441q138 160 370 160q127 -2 214 -74q-78 214 -267 375l-134 -149l-115 90l133 143q-107 69 -215 107l52 125q142 -45 268 -118q35 37 134 158l117 -90q-105 -120 -132 -147q336 -258 424 -678q29 -137 29 -292t-36.5 -273.5t-103.5 -197.5 q-134 -160 -378 -160q-226 0 -362 155q-139 157 -139 425zM313 561q0 -304 171 -404q56 -33 126 -33t121.5 30.5t88.5 86.5q75 116 75 313l1 146q0 69 -6 149q-20 90 -158 127q-50 14 -122 14t-128.5 -31.5t-93.5 -88.5q-75 -113 -75 -309z" />
<glyph unicode="&#xf1;" horiz-adv-x="1279" d="M176 0v1138h196l1 -120q125 86 284 124q66 15 138 15t134 -21.5t103 -74.5q77 -101 77 -351v-710h-220v711q0 150 -40 207q-40 58 -144 58q-113 0 -237 -63q-38 -19 -72 -44v-869h-220zM291 1453q59 129 183 179q42 16 84.5 16t73 -10t54.5 -25.5t44 -33t40 -33.5 q44 -35 86 -35q97 0 183 98l86 -72q-63 -134 -183 -178q-41 -15 -85.5 -15t-75.5 10t-55.5 25.5t-43.5 33.5t-38 33q-44 36 -85 36q-92 0 -183 -97z" />
<glyph unicode="&#xf2;" horiz-adv-x="1213" d="M96 577q0 281 152 435q142 144 368 144q258 0 389 -183q112 -157 112 -418q0 -271 -153 -427q-140 -144 -382 -144q-123 0 -218 50q-268 138 -268 543zM231 1648l157 135q94 -120 338 -399l-111 -90q-59 26 -197.5 153t-186.5 201zM319 591q0 -194 73 -322.5t214 -128.5 t214.5 107.5t73.5 308.5q0 304 -156 406q-56 36 -135 36q-138 0 -211 -105t-73 -302z" />
<glyph unicode="&#xf3;" horiz-adv-x="1213" d="M96 577q0 281 152 435q142 144 368 144q258 0 389 -183q112 -157 112 -418q0 -271 -153 -427q-140 -144 -382 -144q-123 0 -218 50q-268 138 -268 543zM319 591q0 -194 73 -322.5t214 -128.5t214.5 107.5t73.5 308.5q0 304 -156 406q-56 36 -135 36q-138 0 -211 -105 t-73 -302zM486 1384q243 266 338 399l156 -135q-34 -60 -182 -198q-146 -135 -201 -156z" />
<glyph unicode="&#xf4;" horiz-adv-x="1213" d="M96 577q0 281 152 435q142 144 368 144q258 0 389 -183q112 -157 112 -418q0 -271 -153 -427q-140 -144 -382 -144q-123 0 -218 50q-268 138 -268 543zM242 1349l276 333h198l268 -332l-135 -56l-232 222l-249 -223zM319 591q0 -194 73 -322.5t214 -128.5t214.5 107.5 t73.5 308.5q0 304 -156 406q-56 36 -135 36q-138 0 -211 -105t-73 -302z" />
<glyph unicode="&#xf5;" horiz-adv-x="1213" d="M96 577q0 281 152 435q142 144 368 144q258 0 389 -183q112 -157 112 -418q0 -271 -153 -427q-140 -144 -382 -144q-123 0 -218 50q-268 138 -268 543zM197 1453q59 129 183 179q42 16 84.5 16t73 -10t54.5 -25.5t44 -33t40 -33.5q44 -35 86 -35q97 0 183 98l86 -72 q-63 -134 -183 -178q-41 -15 -85.5 -15t-75.5 10t-55.5 25.5t-43.5 33.5t-38 33q-44 36 -85 36q-92 0 -183 -97zM319 591q0 -194 73 -322.5t214 -128.5t214.5 107.5t73.5 308.5q0 304 -156 406q-56 36 -135 36q-138 0 -211 -105t-73 -302z" />
<glyph unicode="&#xf6;" horiz-adv-x="1213" d="M96 577q0 281 152 435q142 144 368 144q258 0 389 -183q112 -157 112 -418q0 -271 -153 -427q-140 -144 -382 -144q-123 0 -218 50q-268 138 -268 543zM245 1479.5q0 44.5 13.5 71.5t35.5 47q47 44 93.5 44t71 -10t40.5 -28q31 -35 31 -80t-13 -72.5t-34 -47t-49 -30.5 t-56.5 -11t-52.5 9t-42 26q-38 37 -38 81.5zM319 591q0 -194 73 -322.5t214 -128.5t214.5 107.5t73.5 308.5q0 304 -156 406q-56 36 -135 36q-138 0 -211 -105t-73 -302zM703 1479.5q0 44.5 13.5 71.5t34.5 47q46 44 93.5 44t72 -10t40.5 -28q31 -35 31 -80t-13 -72.5 t-34 -47t-49 -30.5t-56.5 -11t-52.5 9t-42 26q-38 37 -38 81.5z" />
<glyph unicode="&#xf7;" horiz-adv-x="1393" d="M229 688v170h935v-170h-935zM550 364q0 33 14 62t37 51q49 47 99 47t76.5 -11t43.5 -29q36 -38 36 -86.5t-14 -78t-37 -50.5q-48 -44 -114 -44q-93 0 -129 81q-12 25 -12 58zM551 1154.5q0 47.5 14 76.5t37 51q49 47 99 47t76.5 -11t44.5 -30q35 -39 35 -86.5t-14 -77 t-37 -50.5t-52.5 -33t-60 -12t-56 10t-44.5 28q-42 40 -42 87.5z" />
<glyph unicode="&#xf8;" horiz-adv-x="1213" d="M96 582q0 276 152 430q142 144 368 144q58 0 117 -11l67 197l125 -36l-69 -203q261 -134 261 -545q0 -274 -153 -430q-69 -71 -163.5 -107.5t-178 -36.5t-142.5 11l-66 -195l-125 36l68 201q-261 132 -261 545zM319 591q0 -241 102 -365l259 762q-39 10 -77 10 q-138 0 -211 -105t-73 -302zM533 151q33 -11 89 -11t109 27t89 81q74 107 74 308q0 241 -102 359z" />
<glyph unicode="&#xf9;" horiz-adv-x="1249" d="M170 474v666h220v-665q0 -200 48 -261q25 -31 65 -40t84 -9t81 8t72 20q69 24 113 52v895h220v-1156h-85q-59 0 -77 12q-33 21 -33 76v28q-121 -76 -272 -106q-51 -10 -128.5 -10t-144 35.5t-103.5 100.5q-60 106 -60 354zM249 1648l157 135q94 -120 338 -399l-111 -90 q-59 26 -197.5 153t-186.5 201z" />
<glyph unicode="&#xfa;" horiz-adv-x="1249" d="M170 474v666h220v-665q0 -200 48 -261q25 -31 65 -40t84 -9t81 8t72 20q69 24 113 52v895h220v-1156h-85q-59 0 -77 12q-33 21 -33 76v28q-121 -76 -272 -106q-51 -10 -128.5 -10t-144 35.5t-103.5 100.5q-60 106 -60 354zM504 1384q243 266 338 399l156 -135 q-34 -60 -182 -198q-146 -135 -201 -156z" />
<glyph unicode="&#xfb;" horiz-adv-x="1249" d="M170 474v666h220v-665q0 -200 48 -261q25 -31 65 -40t84 -9t81 8t72 20q69 24 113 52v895h220v-1156h-85q-59 0 -77 12q-33 21 -33 76v28q-121 -76 -272 -106q-51 -10 -128.5 -10t-144 35.5t-103.5 100.5q-60 106 -60 354zM260 1349l276 333h198l268 -332l-135 -56 l-232 222l-249 -223z" />
<glyph unicode="&#xfc;" horiz-adv-x="1249" d="M170 474v666h220v-665q0 -200 48 -261q25 -31 65 -40t84 -9t81 8t72 20q69 24 113 52v895h220v-1156h-85q-59 0 -77 12q-33 21 -33 76v28q-121 -76 -272 -106q-51 -10 -128.5 -10t-144 35.5t-103.5 100.5q-60 106 -60 354zM263 1479.5q0 44.5 13.5 71.5t35.5 47 q47 44 93.5 44t71 -10t40.5 -28q31 -35 31 -80t-13 -72.5t-34 -47t-49 -30.5t-56.5 -11t-52.5 9t-42 26q-38 37 -38 81.5zM721 1479.5q0 44.5 13.5 71.5t34.5 47q46 44 93.5 44t72 -10t40.5 -28q31 -35 31 -80t-13 -72.5t-34 -47t-49 -30.5t-56.5 -11t-52.5 9t-42 26 q-38 37 -38 81.5z" />
<glyph unicode="&#xfd;" horiz-adv-x="1116" d="M44 1140h235l252 -768l58 -186l267 954h237l-384 -1176q-129 -391 -358 -456q-57 -15 -129 -15t-91 14v179q29 -11 78 -11t90 12.5t83 48.5q97 83 140 264h-65zM460 1384q243 266 338 399l156 -135q-34 -60 -182 -198q-146 -135 -201 -156z" />
<glyph unicode="&#xfe;" horiz-adv-x="1238" d="M166 -507v2168h220v-472l-8 -159q126 126 313 126q192 0 315 -134q135 -146 135 -410q0 -279 -157 -454q-76 -83 -182 -129.5t-207.5 -46.5t-221.5 20l13 -171v-338h-220zM386 184q57 -40 205 -40q143 0 231 112q95 121 95 336q0 391 -287 391q-124 0 -244 -93v-706z" />
<glyph unicode="&#xff;" horiz-adv-x="1116" d="M44 1140h235l252 -768l58 -186l267 954h237l-384 -1176q-129 -391 -358 -456q-57 -15 -129 -15t-91 14v179q29 -11 78 -11t90 12.5t83 48.5q97 83 140 264h-65zM219 1479.5q0 44.5 13.5 71.5t35.5 47q47 44 93.5 44t71 -10t40.5 -28q31 -35 31 -80t-13 -72.5t-34 -47 t-49 -30.5t-56.5 -11t-52.5 9t-42 26q-38 37 -38 81.5zM677 1479.5q0 44.5 13.5 71.5t34.5 47q46 44 93.5 44t72 -10t40.5 -28q31 -35 31 -80t-13 -72.5t-34 -47t-49 -30.5t-56.5 -11t-52.5 9t-42 26q-38 37 -38 81.5z" />
<glyph unicode="&#x152;" horiz-adv-x="2063" d="M100 748q0 380 203 588q197 202 522 202q120 0 215 -40v24h876v-172h-653v-480h479v-172h-479v-523h726v-175h-949v50q-119 -66 -274 -66t-278 57q-251 117 -345 412q-43 136 -43 295zM324 758q0 -255 117 -424q127 -182 343 -182q152 0 256 80v1077q-93 60 -213.5 60 t-206.5 -35.5t-152 -110.5q-144 -164 -144 -465z" />
<glyph unicode="&#x153;" horiz-adv-x="1920" d="M96 577q0 279 152 435q141 144 368 144q262 0 390 -193q140 193 403 193q176 0 287 -106q121 -118 127 -324q0 -152 -11 -204h-703q15 -298 216 -354q61 -17 110 -17t90 5t83 13q92 18 136 43l42 -126q-83 -68 -280 -94q-56 -8 -107 -8q-271 0 -401 191 q-141 -191 -405 -191q-257 0 -387 183q-110 156 -110 410zM319 591q0 -193 72.5 -322t212.5 -129t215.5 107.5t75.5 308.5q0 304 -158 406q-56 36 -128 36t-125.5 -25.5t-89.5 -77.5q-75 -106 -75 -304zM1114 668h502q1 22 1 44q0 288 -227 288q-240 0 -276 -332z" />
<glyph unicode="&#x178;" horiz-adv-x="1264" d="M22 1522h238l338 -660l43 -105l36 105l331 660h234l-493 -929v-593h-226v593zM254 1787q0 46 13.5 74.5t36.5 48.5q48 45 96 45t74 -10.5t43 -28.5q34 -36 34 -83t-13 -75t-35.5 -48.5t-51.5 -31.5t-58.5 -11t-54.5 9t-44 26q-40 39 -40 85zM750 1787q0 46 13.5 74.5 t36.5 48.5q48 45 96 45t74 -10.5t43 -28.5q34 -36 34 -83t-13 -75t-35.5 -48.5t-51.5 -31.5t-58.5 -11t-54.5 9t-44 26q-40 39 -40 85z" />
<glyph unicode="&#x2c6;" horiz-adv-x="836" d="M47 1349l276 333h198l268 -332l-135 -56l-232 222l-249 -223z" />
<glyph unicode="&#x2dc;" horiz-adv-x="927" d="M47 1453q59 129 183 179q42 16 84.5 16t73 -10t54.5 -25.5t44 -33t40 -33.5q44 -35 86 -35q97 0 183 98l86 -72q-63 -134 -183 -178q-41 -15 -85.5 -15t-75.5 10t-55.5 25.5t-43.5 33.5t-38 33q-44 36 -85 36q-92 0 -183 -97z" />
<glyph unicode="&#x2000;" horiz-adv-x="995" />
<glyph unicode="&#x2001;" horiz-adv-x="1990" />
<glyph unicode="&#x2002;" horiz-adv-x="995" />
<glyph unicode="&#x2003;" horiz-adv-x="1990" />
<glyph unicode="&#x2004;" horiz-adv-x="663" />
<glyph unicode="&#x2005;" horiz-adv-x="497" />
<glyph unicode="&#x2006;" horiz-adv-x="331" />
<glyph unicode="&#x2007;" horiz-adv-x="331" />
<glyph unicode="&#x2008;" horiz-adv-x="248" />
<glyph unicode="&#x2009;" horiz-adv-x="398" />
<glyph unicode="&#x200a;" horiz-adv-x="110" />
<glyph unicode="&#x2010;" horiz-adv-x="1350" d="M250 683v177h850v-177h-850z" />
<glyph unicode="&#x2011;" horiz-adv-x="1350" d="M250 683v177h850v-177h-850z" />
<glyph unicode="&#x2012;" horiz-adv-x="1350" d="M250 683v177h850v-177h-850z" />
<glyph unicode="&#x2013;" horiz-adv-x="1692" d="M240 683v177h1212v-177h-1212z" />
<glyph unicode="&#x2014;" horiz-adv-x="2343" d="M240 683v177h1863v-177h-1863z" />
<glyph unicode="&#x2018;" horiz-adv-x="520" d="M98 1330q0 73 21.5 139.5t52.5 118.5q59 96 133 145l96 -61v-32q-67 -56 -91 -196q-6 -40 -6 -77.5t10.5 -73t26.5 -65.5q33 -59 76 -79v-62l-113 -127q-142 50 -190 238q-16 59 -16 132z" />
<glyph unicode="&#x2019;" horiz-adv-x="520" d="M111 1555v61l143 117q156 -73 156 -325q0 -166 -68 -299q-49 -98 -119 -149l-96 61v32q52 55 71 197q6 39 6 77.5t-8.5 76t-21.5 68.5q-28 61 -63 83z" />
<glyph unicode="&#x201a;" horiz-adv-x="520" d="M111 53v61l143 117q156 -73 156 -325q0 -166 -68 -299q-49 -98 -119 -149l-96 61v32q52 55 71 197q6 39 6 77.5t-8.5 76t-21.5 68.5q-28 61 -63 83z" />
<glyph unicode="&#x201c;" horiz-adv-x="1029" d="M98 1330q0 73 21.5 139.5t52.5 118.5q59 96 133 145l96 -61v-32q-67 -56 -91 -196q-6 -40 -6 -77.5t10.5 -73t26.5 -65.5q33 -59 76 -79v-62l-113 -127q-142 50 -190 238q-16 59 -16 132zM614 1330q0 73 21.5 139.5t52.5 118.5q59 96 133 145l96 -61v-32 q-67 -56 -91 -196q-6 -40 -6 -77.5t10.5 -73t26.5 -65.5q33 -59 76 -79v-62l-113 -127q-142 50 -190 238q-16 59 -16 132z" />
<glyph unicode="&#x201d;" horiz-adv-x="1029" d="M111 1555v61l143 117q156 -73 156 -325q0 -166 -68 -299q-49 -98 -119 -149l-96 61v32q52 55 71 197q6 39 6 77.5t-8.5 76t-21.5 68.5q-28 61 -63 83zM627 1555v61l143 117q156 -73 156 -325q0 -166 -68 -299q-49 -98 -119 -149l-96 61v32q52 55 71 197q6 39 6 77.5 t-8.5 76t-21.5 68.5q-28 61 -63 83z" />
<glyph unicode="&#x201e;" horiz-adv-x="1029" d="M111 79v61l143 117q156 -73 156 -325q0 -166 -68 -299q-49 -98 -119 -149l-96 61v32q52 55 71 197q6 39 6 77.5t-8.5 76t-21.5 68.5q-28 61 -63 83zM624 79v61l143 117q156 -73 156 -325q0 -166 -68 -299q-49 -98 -119 -149l-96 61v32q52 55 71 197q6 39 6 77.5t-8.5 76 t-21.5 68.5q-28 61 -63 83z" />
<glyph unicode="&#x2022;" horiz-adv-x="855" d="M207 710q0 104 73 176q69 66 158 66q91 0 152 -65q58 -61 58 -144q0 -105 -72 -177q-69 -67 -158 -67q-92 0 -154 67q-57 63 -57 144z" />
<glyph unicode="&#x2026;" horiz-adv-x="2047" d="M187 133.5q0 34.5 13 65t36 53.5q49 52 98.5 52t76.5 -12t45 -33q39 -44 39 -94.5t-12.5 -81.5t-34.5 -55q-49 -50 -115 -50q-57 0 -100 43q-20 20 -33 49t-13 63.5zM870 133.5q0 34.5 13 65t35 53.5q50 52 99 52t76 -12t45 -33q39 -44 39 -94.5t-12.5 -81.5t-34.5 -55 q-49 -50 -115 -50q-57 0 -100 43q-20 20 -32.5 49t-12.5 63.5zM1552 133.5q0 34.5 13 65t35 53.5q50 52 99.5 52t76.5 -12t45 -33q39 -46 39 -95.5t-13 -80.5t-35 -55q-49 -50 -114 -50q-58 0 -101 43q-20 20 -32.5 49t-12.5 63.5z" />
<glyph unicode="&#x202f;" horiz-adv-x="398" />
<glyph unicode="&#x2039;" horiz-adv-x="1204" d="M245 519v184l643 430l57 -163l-485 -356l485 -351l-57 -159z" />
<glyph unicode="&#x203a;" horiz-adv-x="1204" d="M259 263l57 -159l643 415v184l-643 430l-57 -163l485 -356z" />
<glyph unicode="&#x205f;" horiz-adv-x="497" />
<glyph unicode="&#x20ac;" horiz-adv-x="1505" d="M114 511v143h193q-1 16 -1 32v34q0 85 10 163h-170v143h197q62 236 225 370q172 143 447 143q140 0 261 -43q32 -12 63 -19l-53 -174q-66 36 -113 47q-91 21 -187.5 21t-158 -22t-111.5 -65q-102 -90 -144 -258h529v-143h-552q-4 -48 -4 -106.5t4 -122.5h518v-143h-502 q33 -182 117 -273q99 -106 273 -106q156 0 290 56q39 17 66 37l60 -165q-30 -5 -72 -22t-73 -27.5t-74 -18.5q-97 -20 -225.5 -20t-230.5 38t-178 108q-150 141 -195 393h-209z" />
<glyph unicode="&#x2122;" horiz-adv-x="2218" d="M177 1543h689v-153l-256 1v-624h-184v624l-248 -1zM1008 767l41 776h293l144 -405l38 -141l30 141l129 405h276l74 -776h-177l-39 536l-7 125l-226 -668h-118l-260 670l-3 -127l-25 -536h-170z" />
<glyph unicode="&#x25fc;" horiz-adv-x="1140" d="M0 0v1140h1140v-1140h-1140z" />
</font>
</defs>
</svg>
