<?xml version="1.0" standalone="no"?>
<!DOCTYPE svg PUBLIC "-//W3C//DTD SVG 1.1//EN" "http://www.w3.org/Graphics/SVG/1.1/DTD/svg11.dtd" >
<svg xmlns="http://www.w3.org/2000/svg">
<metadata></metadata>
<defs>
<font id="merriweather_sanslight" horiz-adv-x="0" >
<font-face units-per-em="2048" ascent="1638" descent="-410" />
<missing-glyph horiz-adv-x="655" />
<glyph unicode="&#xfb01;" horiz-adv-x="1389" d="M76 1014v92l196 34v92q0 233 128 352q106 98 264 98q80 0 136 -21v-133q-54 20 -151.5 20t-153.5 -70.5t-56 -209.5v-128h303v-126h-303v-1014h-167v1014h-196zM984 1490q0 67 38 103.5t88.5 36.5t77 -32t26.5 -71q0 -99 -77 -130q-22 -9 -45 -9q-47 0 -77.5 31.5 t-30.5 70.5zM1012 0v1139h166v-1139h-166z" />
<glyph unicode="&#xfb02;" horiz-adv-x="1395" d="M76 1014v92l196 34v92q0 233 128 352q106 98 264 98q80 0 136 -21v-133q-54 20 -151.5 20t-153.5 -70.5t-56 -209.5v-128h303v-126h-303v-1014h-167v1014h-196zM1015 0v1664h167v-1664h-167z" />
<glyph unicode="&#xfb03;" horiz-adv-x="2190" d="M76 1014v92l196 34v92q0 233 128 352q106 98 264 98q80 0 136 -21v-133q-54 20 -151.5 20t-153.5 -70.5t-56 -209.5v-128h303v-126h-303v-1014h-167v1014h-196zM877 1014v92l196 34v92q0 233 128 352q106 98 264 98q80 0 136 -21v-133q-54 20 -151.5 20t-153.5 -70.5 t-56 -209.5v-128h303v-126h-303v-1014h-167v1014h-196zM1785 1490q0 67 38 103.5t88.5 36.5t77 -32t26.5 -71q0 -99 -77 -130q-22 -9 -45 -9q-47 0 -77.5 31.5t-30.5 70.5zM1813 0v1139h166v-1139h-166z" />
<glyph unicode="&#xfb04;" horiz-adv-x="2196" d="M76 1014v92l196 34v92q0 233 128 352q106 98 264 98q80 0 136 -21v-133q-54 20 -151.5 20t-153.5 -70.5t-56 -209.5v-128h303v-126h-303v-1014h-167v1014h-196zM877 1014v92l196 34v92q0 233 128 352q106 98 264 98q80 0 136 -21v-133q-54 20 -151.5 20t-153.5 -70.5 t-56 -209.5v-128h303v-126h-303v-1014h-167v1014h-196zM1816 0v1664h167v-1664h-167z" />
<glyph />
<glyph horiz-adv-x="682" />
<glyph />
<glyph />
<glyph />
<glyph />
<glyph />
<glyph />
<glyph />
<glyph unicode="&#x9;" />
<glyph unicode="&#xa;" />
<glyph />
<glyph />
<glyph />
<glyph />
<glyph />
<glyph />
<glyph />
<glyph />
<glyph />
<glyph />
<glyph />
<glyph />
<glyph unicode=" "  horiz-adv-x="655" />
<glyph unicode="&#x09;" horiz-adv-x="655" />
<glyph unicode="&#xa0;" horiz-adv-x="655" />
<glyph unicode="!" horiz-adv-x="601" d="M183 97q0 71 36.5 111.5t73.5 40.5q63 0 93 -35.5t30 -78.5q0 -106 -75 -141q-22 -10 -57 -10t-68 35t-33 78zM210 1780h187l-18 -1307h-148z" />
<glyph unicode="&#x22;" horiz-adv-x="1214" d="M274 1685h183l-24 -719h-134zM756 1685h183l-24 -719h-134z" />
<glyph unicode="#" horiz-adv-x="1556" d="M203 358v119h223l40 437h-227v117h238l31 338h145l-32 -338h374l30 338h145l-31 -338h230v-117h-241l-40 -437h234l1 -119h-246l-33 -358h-140l31 358h-376l-33 -358h-143l32 358h-212zM570 477h376l38 437h-374z" />
<glyph unicode="$" horiz-adv-x="1382" d="M238 74l41 139q99 -63 271 -87q55 -7 122 -7q150 0 241 62t91 182.5t-102 201.5q-68 54 -202 114.5t-205.5 104t-127.5 99.5q-125 125 -125 288.5t128 262.5q108 82 283 100l4 218h124l-3 -215q202 -10 315 -81l-35 -133q-128 82 -326 82q-135 0 -231.5 -57t-96.5 -169.5 t88 -192.5q63 -59 194 -121.5t208 -104.5q276 -149 276 -375q0 -181 -117 -282.5t-318 -116.5l-2 -221h-124l2 221q-184 8 -319 61q-36 14 -54 27z" />
<glyph unicode="%" horiz-adv-x="1944" d="M85 1092q0 177 111.5 288.5t274.5 111.5t249 -110t86 -293.5t-111.5 -293t-267 -109.5t-249 114.5t-93.5 291.5zM234 1089q0 -199 120 -269q38 -22 86 -22q98 2 157.5 79t59.5 209q0 208 -117 274q-36 20 -61.5 20t-50.5 -0.5t-65 -21t-69 -58.5q-60 -79 -60 -211zM567 0 l658 1530h145l-658 -1530h-145zM1138 461q0 177 111.5 288.5t275.5 111.5t248.5 -110.5t84.5 -293t-111.5 -292t-267 -109.5t-248.5 114t-93 291zM1287 462.5q0 -129.5 55.5 -212t150.5 -82.5q97 0 156.5 76.5t59.5 211.5q0 208 -116 274q-36 20 -61.5 20t-51 -0.5 t-65.5 -21t-69 -58.5q-59 -78 -59 -207.5z" />
<glyph unicode="&#x26;" horiz-adv-x="1532" d="M148 392.5q0 198.5 208 325.5q61 38 128 68q-186 235 -186 403.5t109.5 262.5t286 94t278 -98t101.5 -234q0 -246 -225 -392q-68 -44 -150 -81q157 -214 266.5 -341t137.5 -156q109 101 109 270q0 110 -38 214h147q35 -114 35 -214q0 -228 -152 -358q98 -69 221 -69h16 v-88q-52 -15 -113 -15q-125 0 -241 84q-163 -84 -316 -84q-295 0 -458.5 105t-163.5 303.5zM305 390q0 -123 109.5 -203.5t328.5 -80.5q116 0 239 53q-179 194 -422 528q-255 -118 -255 -297zM453 1202q0 -57 12.5 -100.5t35 -84.5t54.5 -83t70 -94q305 125 305 372 q0 84 -63.5 149.5t-169.5 65.5q-170 0 -225 -125q-19 -43 -19 -100z" />
<glyph unicode="'" horiz-adv-x="731" d="M274 1685h183l-24 -719h-134z" />
<glyph unicode="(" horiz-adv-x="848" d="M142 712q0 156 27.5 283t70.5 235q78 194 186.5 330t171.5 172l115 -57q-112 -83 -229 -281q-179 -308 -179 -706q0 -477 258 -808q72 -92 150 -150l-115 -57q-131 83 -254 281.5t-174 461.5q-28 140 -28 296z" />
<glyph unicode=")" horiz-adv-x="848" d="M135 -248q112 83 229 281q179 308 179 706q0 477 -258 808q-72 92 -150 150l115 57q131 -83 254 -281.5t174 -461.5q28 -140 28 -296t-27.5 -283t-70.5 -235q-78 -194 -186.5 -330t-171.5 -172z" />
<glyph unicode="*" horiz-adv-x="1226" d="M139 1340l71 126l237 -151l131 -104q0 1 -2 13l-5 30q-11 67 -16.5 93t-5.5 28l-14 283h146l-10 -281l-26 -165l128 108l238 152l72 -124l-247 -133l-156 -61l157 -57l250 -128l-74 -129l-235 150l-133 104l29 -165l16 -280l-146 -1l10 281l25 167l-128 -110l-236 -152 l-73 125l246 134l157 60l-158 57z" />
<glyph unicode="+" horiz-adv-x="1393" d="M232 706v134h237l163 -8l-5 171v244h136v-244l-6 -171l149 8h255v-134h-255l-149 5l6 -172v-251h-136v251l5 172l-163 -5h-237z" />
<glyph unicode="," horiz-adv-x="601" d="M164 -409q92 55 130 203q13 51 13 96q0 76 -31.5 141t-74.5 80v48l105 99q80 -37 119.5 -122.5t39.5 -175.5q0 -165 -71.5 -290t-172.5 -169l-56 69z" />
<glyph unicode="-" horiz-adv-x="1350" d="M247 705v135h856v-135h-856z" />
<glyph unicode="." horiz-adv-x="601" d="M184.5 110q-0.5 56 36.5 97.5t88 41.5t79.5 -37t28.5 -79q0 -71 -35.5 -110t-72 -39t-56 9t-35.5 25q-33 36 -33.5 92z" />
<glyph unicode="/" horiz-adv-x="854" d="M66 -363l570 1962h151l-571 -1962h-150z" />
<glyph unicode="0" horiz-adv-x="1378" d="M151 667q0 115 45 233.5t119 199.5q155 170 391 170q278 0 409 -185q111 -157 111 -444.5t-153 -470t-392 -182.5q-356 0 -480 334q-50 134 -50 345zM315 651q-1 -234 86 -382q103 -173 283 -173t279 143.5t99 390.5q0 370 -197 488q-70 41 -163 41q-181 0 -283.5 -137 t-103.5 -371z" />
<glyph unicode="1" horiz-adv-x="914" d="M127 1078q146 44 315 154q43 28 63 46l78 -22v-1256h-174v1067q-156 -64 -262 -90z" />
<glyph unicode="2" horiz-adv-x="1266" d="M156 86q298 176 492 372q230 231 230 426.5t-158 250.5q-51 18 -110 18q-105 0 -202.5 -43.5t-158.5 -110.5l-71 95q102 124 294 175q69 18 167 18q202 0 305.5 -106.5t103.5 -276.5q0 -201 -171 -405t-445 -369l688 5v-135h-939z" />
<glyph unicode="3" horiz-adv-x="1136" d="M105 1127q116 100 289 141q64 16 140 16q171 0 291 -89.5t120 -266t-179 -306.5q-53 -39 -114 -66q170 -11 270.5 -117t100.5 -247q0 -103 -47.5 -198.5t-135.5 -169.5q-193 -161 -496 -161q-93 0 -195 18l-1 115q75 -14 116 -14q169 0 271 34.5t173 89.5 q145 115 145 266.5t-88 226t-226 74.5q-35 0 -75 -5l-111 -27l-36 116q105 21 185 53q137 51 207.5 134.5t70.5 188t-72.5 162t-194.5 57.5q-187 0 -342 -121z" />
<glyph unicode="4" horiz-adv-x="1314" d="M104 79q9 17 36.5 74t67.5 139.5t88.5 183.5t98.5 206t99 207q140 291 195 418h59l104 -64q-60 -139 -273.5 -561t-221.5 -438l-67 -115h537l13 487h153v-487h251v-129h-251v-376h-166v376h-682z" />
<glyph unicode="5" horiz-adv-x="1222" d="M203 -335l1 113q50 -5 80 -5q265 0 441.5 131.5t176.5 322.5q0 325 -344 325h-8q-133 0 -298 -61l-41 25l61 736h750l-16 -144h-603l-49 -477q150 46 266 46q221 0 336 -117t115 -322q0 -144 -88 -277q-141 -214 -437 -284q-101 -24 -201 -24.5t-142 12.5z" />
<glyph unicode="6" horiz-adv-x="1377" d="M168 574q0 250 121.5 463.5t312.5 352.5t390 178l46 -108q-302 -80 -495.5 -320t-193.5 -521q0 -354 183 -473q68 -45 162 -45q167 0 254.5 124.5t87.5 293t-77.5 252.5t-197 84t-199.5 -60l-47 100q90 90 307 90q74 0 150 -36.5t128 -96.5q105 -124 105 -306 q0 -229 -138 -395.5t-380.5 -166.5t-380.5 170t-138 420z" />
<glyph unicode="7" horiz-adv-x="1236" d="M150 1135l1 136h937l37 -46l-569 -1555l-179 52q137 287 445 1098q35 92 65.5 172t53.5 142z" />
<glyph unicode="8" horiz-adv-x="1297" d="M157 361q0 295 331 443q-128 75 -199.5 167t-71.5 226q0 177 130 272.5t322 95.5t312.5 -95.5t120.5 -252.5q0 -195 -166 -341q-56 -50 -133 -86q173 -90 236 -150t93.5 -119t30.5 -147.5t-40.5 -164.5t-109.5 -126q-137 -99 -346 -99t-347 92q-73 48 -118 124.5 t-45 160.5zM318 386q0 -126 91 -205t245.5 -79t249 73t94.5 196q0 169 -250 296q-71 36 -145 74q-124 -46 -204.5 -137.5t-80.5 -217.5zM371 1207q0 -161 197 -285q57 -37 120 -71q112 39 186.5 135t74.5 209.5t-74.5 183t-206 69.5t-214.5 -64.5t-83 -176.5z" />
<glyph unicode="9" horiz-adv-x="1396" d="M180 722q0 238 141.5 390t383 152t374 -168t132.5 -418q0 -397 -277 -706q-165 -183 -370 -278q-100 -47 -196 -67l-57 103q316 78 519 348t203 549q0 359 -184 475q-67 43 -157 43q-162 0 -253 -114.5t-91 -253.5q0 -187 81 -290t197.5 -103t208.5 55l40 -95 q-79 -90 -305 -90q-77 0 -154 39.5t-130 104.5q-106 133 -106 324z" />
<glyph unicode=":" horiz-adv-x="601" d="M184.5 110q-0.5 56 36.5 97.5t88 41.5t79.5 -37t28.5 -79q0 -71 -35.5 -110t-72 -39t-56 9t-35.5 25q-33 36 -33.5 92zM184.5 934q-0.5 56 36.5 97.5t88 41.5t79.5 -37t28.5 -79q0 -71 -35.5 -110t-72 -39t-56 9t-35.5 25q-33 36 -33.5 92z" />
<glyph unicode=";" horiz-adv-x="601" d="M154 -409q92 55 130 203q13 51 13 96q0 76 -31.5 141t-74.5 80v48l105 99q80 -37 119.5 -122.5t39.5 -175.5q0 -165 -71.5 -290t-172.5 -169l-56 69zM184.5 934q-0.5 56 36.5 97.5t88 41.5t79.5 -37t28.5 -79q0 -71 -35.5 -110t-72 -39t-56 9t-35.5 25q-33 36 -33.5 92z " />
<glyph unicode="&#x3c;" horiz-adv-x="1368" d="M171 712v122l962 459v-156l-789 -364l789 -360v-159z" />
<glyph unicode="=" horiz-adv-x="1397" d="M241 428v127h915v-127h-915zM241 986v128h915v-128h-915z" />
<glyph unicode="&#x3e;" horiz-adv-x="1368" d="M235 254l962 458v122l-962 459v-156l789 -364l-789 -360v-159z" />
<glyph unicode="?" horiz-adv-x="1047" d="M134 1672v123q26 23 100.5 32.5t108.5 9.5q325 0 480 -171q109 -122 109 -302q0 -138 -45 -206t-96 -112t-108.5 -79t-107 -69t-82.5 -71t-35 -68.5t-2 -46.5q0 -81 58 -246l-127 -1q-57 76 -83 207q-9 49 -9 90t18 75t49 65t71 59t83 55q124 81 160 114q74 69 83 142 q8 45 8 90q0 135 -91 222q-119 112 -359 112q-124 0 -183 -24zM389 94q0 68 36 108t73 40q61 0 90 -35t29 -76q0 -103 -74 -137q-22 -10 -55.5 -10t-66 34.5t-32.5 75.5z" />
<glyph unicode="@" horiz-adv-x="2218" d="M224 425q0 331 135.5 585t370.5 394t523 140q338 0 542 -188.5t204 -520.5q0 -383 -169.5 -608t-386.5 -225q-135 0 -135 211q0 88 16 191q-129 -276 -280 -372q-54 -34 -108 -34t-105 26q-109 55 -157 216q-22 77 -22 132t0.5 94t16 113.5t45.5 144.5q64 154 188 250.5 t289 96.5t259 -57l133 26q-91 -318 -133 -639q-14 -105 -14 -191t45 -86q68 0 136 53t123 145q123 207 123 486q0 624 -639 624q-231 0 -428 -123q-310 -194 -405 -585q-32 -133 -32 -280.5t27 -262t76 -202.5q93 -168 256.5 -249.5t394 -81.5t389.5 93l30 -100 q-109 -71 -320 -97q-68 -9 -138 -9q-378 0 -614 227.5t-236 662.5zM795 415q0 -109 43 -195.5t128 -86.5q103 0 248 274t178 478q-55 71 -202 71q-179 0 -292 -161q-49 -71 -75 -158.5t-27 -136t-1 -85.5z" />
<glyph unicode="A" horiz-adv-x="1393" d="M33 0l588 1538h166l574 -1538h-183l-147 418h-665l-153 -418h-180zM412 545h575l-244 695l-38 120l-38 -121z" />
<glyph unicode="B" horiz-adv-x="1350" d="M206 0v1523l92 -1l340 13q250 0 374 -94t124 -278.5t-130 -293.5q-47 -39 -114 -55q141 -6 245 -110t104 -251q0 -228 -133 -341q-70 -61 -185 -93.5t-242 -32.5t-386 14h-89zM374 130q105 -20 244.5 -20t215.5 16q235 52 235 307q0 281 -366 290h-197q-94 0 -132 -4 v-589zM374 848q40 -5 170 -5l177 1q117 8 184 90.5t67 220.5q0 260 -366 260q-148 0 -232 -12v-555z" />
<glyph unicode="C" horiz-adv-x="1328" d="M107 762q0 181 55 327t150 246q193 203 491 203q202 0 341 -43q33 -10 56 -15l-24 -150q-17 6 -44 17.5t-103 32t-206 20.5q-253 0 -400.5 -168t-147.5 -459t141 -473t386 -182q195 0 338 61q37 16 57 29l2 -144q-35 -11 -72 -25t-116.5 -34.5t-226 -20.5t-273.5 55.5 t-217 156.5t-138.5 243t-48.5 323z" />
<glyph unicode="D" horiz-adv-x="1479" d="M206 0v1522h60l60 1l338 13q358 0 539 -190t181 -555t-194.5 -586t-532.5 -221l-340 14l-93 2h-18zM375 128q134 -19 242 -19q163 0 268 43q100 40 171 122q152 174 152 515q0 480 -329 588q-110 36 -234 36t-270 -14v-1271z" />
<glyph unicode="E" horiz-adv-x="1203" d="M206 0v1522h858v-131h-689v-539h503v-131h-503v-588h762v-133h-931z" />
<glyph unicode="F" horiz-adv-x="1085" d="M206 0v1522h851v-131h-682v-561h509v-131h-509v-699h-169z" />
<glyph unicode="G" horiz-adv-x="1442" d="M110 769q0 356 198 562.5t507 206.5q174 0 335 -42q40 -10 85 -19l-7 -152q-171 80 -409.5 80t-385.5 -168t-147 -463.5t136 -477.5t369 -182t367 67v436l-316 11v122h479v-659q-32 -2 -73 -19q-215 -88 -412 -88t-325.5 58t-217.5 160q-183 211 -183 567z" />
<glyph unicode="H" horiz-adv-x="1542" d="M206 0v1522h169v-682h792v682h169v-1522h-169v710h-792v-710h-169z" />
<glyph unicode="I" horiz-adv-x="613" d="M221 0v1522h171v-1522h-171z" />
<glyph unicode="J" horiz-adv-x="694" d="M-39 -243q162 46 250 173q68 98 78 328q4 90 4 296v968h172v-985q0 -134 -0.5 -253t-18.5 -214q-31 -174 -158 -278t-274 -124z" />
<glyph unicode="K" horiz-adv-x="1364" d="M206 0v1522h169v-821l675 821h201l-541 -646q32 -51 112 -170q174 -258 248.5 -370t139.5 -225l67 -111h-196q-6 9 -11.5 19.5t-12.5 23.5t-16 30t-35 62.5t-79 129t-110.5 169.5t-113.5 169t-99 150l-229 -265v-488h-169z" />
<glyph unicode="L" horiz-adv-x="1066" d="M206 0v1522h172v-1389h629v-133h-801z" />
<glyph unicode="M" horiz-adv-x="1925" d="M149 -1l162 1523h240l337 -989l75 -286l73 286l318 989h228l196 -1522h-171l-106 947l-44 450l-124 -450l-323 -962h-93l-339 962l-136 450l-38 -450l-91 -947z" />
<glyph unicode="N" horiz-adv-x="1553" d="M205 0v1522h157l701 -1060l142 -247l-12 311v996h155v-1522h-155l-687 1034l-156 265l11 -329v-970h-156z" />
<glyph unicode="O" horiz-adv-x="1572" d="M110 767.5q0 180.5 57.5 329.5t151.5 245q190 196 492 196t475.5 -208t173.5 -544q0 -382 -194 -592t-503 -210q-148 0 -267 54q-252 116 -343 408q-43 141 -43 321.5zM281 750q0 -127 31 -240q67 -243 252 -345q93 -51 212 -51q237 0 374 172q138 174 138 473 q0 293 -126 471q-128 180 -357 179.5t-376.5 -170t-147.5 -489.5z" />
<glyph unicode="P" horiz-adv-x="1279" d="M206 0v1522h82l378 14q527 0 527 -491q0 -246 -151.5 -381t-419.5 -137l-247 8v-535h-169zM375 664q92 -12 208 -12q217 1 329 94t112 298q0 292 -226 351q-73 19 -193.5 19t-229.5 -16v-734z" />
<glyph unicode="Q" horiz-adv-x="1570" d="M109 747q0 201 57.5 350t151.5 245q190 196 492 196t475.5 -208t173.5 -536t-138 -526.5t-363 -258.5q133 -158 373 -158q125 0 178 23v-123q-57 -38 -156 -38q-190 0 -316.5 60t-237.5 212l-21 -1h-16q-299 0 -476 213.5t-177 549.5zM280 750q0 -127 31 -240 q67 -243 252 -345q93 -51 212 -51q237 0 374 172q138 174 138 473q0 292 -127 471t-356 179t-376.5 -169.5t-147.5 -489.5z" />
<glyph unicode="R" horiz-adv-x="1359" d="M206 0v1522h46l54 1q72 1 166.5 7t193.5 6q522 0 522 -420q0 -253 -182 -370q-57 -36 -127 -56q96 -59 197 -260q39 -78 87 -180.5t68.5 -139.5t34.5 -63t28 -47h-192q-34 46 -78.5 152.5t-71.5 165.5q-69 152 -118 222q-73 104 -150 124q-78 -3 -153.5 -3t-155.5 2v-663 h-169zM375 783q54 -6 158 -6h126q253 3 330 186q26 62 26 144t-22 139.5t-68.5 94t-117.5 53.5t-205.5 17t-226.5 -16v-612z" />
<glyph unicode="S" horiz-adv-x="1154" d="M136 74l41 139q99 -63 271 -87q55 -7 122 -7q150 0 241 62t91 182.5t-102 201.5q-68 54 -202 114.5t-205.5 104t-127.5 99.5q-125 125 -125 279q0 253 261 340q106 36 204 36q260 0 386 -82l-35 -133q-128 82 -326 82q-135 0 -231.5 -57t-96.5 -169.5t88 -192.5 q63 -59 194 -121.5t208 -104.5q276 -149 276 -375q0 -195 -136 -298t-352.5 -103t-380.5 60q-42 16 -63 30z" />
<glyph unicode="T" horiz-adv-x="1279" d="M62 1391v131h1160v-131h-498v-1391h-171v1391h-491z" />
<glyph unicode="U" horiz-adv-x="1474" d="M171 644v879h169l-1 -839q0 -458 237 -540q77 -27 170 -27q195 0 292.5 127.5t97.5 440.5v837h168v-877q0 -661 -560 -661q-439 0 -540 376q-33 123 -33 284z" />
<glyph unicode="V" horiz-adv-x="1331" d="M31 1522h179l391 -1085l76 -244l76 244l370 1085h178l-554 -1538h-142z" />
<glyph unicode="W" horiz-adv-x="1909" d="M32 1522h174l249 -1006l69 -335l74 335l298 1006h125l301 -1006l85 -332l64 331l236 1007h171l-392 -1538h-166l-325 1096l-37 182l-37 -182l-329 -1096h-148z" />
<glyph unicode="X" horiz-adv-x="1330" d="M73 0l490 782l-484 740l191 1l295 -465l107 -177l105 177l283 464h183l-480 -764l494 -758h-193l-408 655l-400 -655h-183z" />
<glyph unicode="Y" horiz-adv-x="1249" d="M31 1522h181l374 -701l51 -115l44 115l359 701h179l-499 -935v-587h-172v584z" />
<glyph unicode="Z" horiz-adv-x="1309" d="M106 66l808 1209l85 112h-810v135h995l36 -64l-805 -1219l-86 -106h849v-133h-1036z" />
<glyph unicode="[" horiz-adv-x="841" d="M226 2v1542q0 115 23 145t52 39t94.5 9t292.5 -20v-90h-302v-1709l302 -2v-87q-138 -20 -248 -20t-139 9t-52 39t-23 145z" />
<glyph unicode="\" horiz-adv-x="854" d="M66 1599l571 -1962h150l-570 1962h-151z" />
<glyph unicode="]" horiz-adv-x="841" d="M153 -84v-87q138 -20 248 -20t139 9t52 39t23 145v1542q0 115 -23 145t-52 39t-94.5 9t-292.5 -20v-90h302v-1709z" />
<glyph unicode="^" horiz-adv-x="1363" d="M189 509l414 1022h154l417 -1022h-160l-334 839l-330 -839h-161z" />
<glyph unicode="_" horiz-adv-x="1692" d="M-40 -297h1772v-105h-1772v105z" />
<glyph unicode="`" horiz-adv-x="557" d="M50 1678l120 103q90 -118 337 -398l-85 -68q-72 48 -192 162.5t-180 200.5z" />
<glyph unicode="a" horiz-adv-x="1145" d="M110 320.5q0 93.5 63 171.5q131 162 527 186q56 4 101 4v132q0 130 -63.5 173t-196.5 43t-280 -64q-39 -17 -61 -33l-41 110q93 62 281 100q69 14 147 14q183 0 273 -68q107 -81 107 -282v-823h-68q-49 0 -68.5 14t-19.5 66l-1 42q-88 -80 -238 -111q-54 -11 -122.5 -11 t-132 21.5t-109.5 62.5t-72 100t-26 152.5zM275 330q0 -221 231 -221q141 0 258 71q27 17 37 28v367q-133 0 -225 -19t-128 -34q-173 -64 -173 -192z" />
<glyph unicode="b" horiz-adv-x="1244" d="M184 64v1597h167v-475l-7 -170q147 140 345.5 140t325 -141t126.5 -412t-159 -445.5t-415 -174.5q-175 0 -330 57q-38 14 -53 24zM351 155q65 -49 230 -49t277.5 126.5t112.5 349.5q0 443 -325 443q-127 0 -243 -77q-31 -20 -52 -39v-754z" />
<glyph unicode="c" horiz-adv-x="1012" d="M106 561.5q0 258.5 141 426.5t397 168q138 0 236 -38q26 -11 41 -21l-29 -132q-84 62 -245.5 62t-270 -118t-108.5 -337.5t100.5 -340.5t263 -121t280.5 79l35 -96q-118 -109 -348 -109t-361.5 159.5t-131.5 418z" />
<glyph unicode="d" horiz-adv-x="1239" d="M102 533.5q0 273.5 157.5 448t414.5 174.5q122 0 221 -38l-3 68v478h167v-1676h-72q-65 0 -79 32q-6 13 -6 37v69q-142 -142 -341.5 -142t-329 138t-129.5 411.5zM273 555.5q0 -221.5 83.5 -331t243 -109.5t292.5 114v749q-65 56 -233.5 56t-277 -128.5t-108.5 -350z" />
<glyph unicode="e" horiz-adv-x="1128" d="M104 565q0 264 136.5 427.5t380.5 163.5q177 0 288 -117t113 -327v-39q0 -83 -7 -120h-748v-20q0 -221 113 -331q95 -92 264 -92q122 0 250 48q37 13 60 28l32 -97q-128 -105 -418 -105q-87 0 -180 40q-284 121 -284 541zM274 665h593q1 21 1 58q0 125 -50 207 q-66 107 -213 107q-206 0 -291 -203q-29 -70 -40 -169z" />
<glyph unicode="f" horiz-adv-x="801" d="M76 1014v92l196 34v92q0 233 128 352q106 98 264 98q80 0 136 -21v-133q-54 20 -151.5 20t-153.5 -70.5t-56 -209.5v-128h303v-126h-303v-1014h-167v1014h-196z" />
<glyph unicode="g" horiz-adv-x="1224" d="M121 -215q0 173 159 261q-86 48 -86 171q1 58 38 118.5t98 104.5q-87 48 -137.5 129t-50.5 186q0 197 126 299t332 102q152 0 264 -68q98 49 220 49h107v-134h-232q69 -95 69 -208q0 -204 -127.5 -309.5t-323.5 -105.5q-84 0 -154 21q-76 -60 -76 -137t35 -104.5 t128 -27.5h247q322 0 377 -178q15 -51 15 -120.5t-43 -137.5t-118 -116q-154 -97 -389 -97q-345 0 -444 177q-34 61 -34 125zM284 -180q0 -114 79 -168t242 -54q255 0 351 120q33 41 33 93q0 104 -67 146.5t-233 42.5h-154q-100 0 -159 10q-92 -76 -92 -190zM308 776 q0 -132 72 -208t200 -76q282 0 282 280q0 136 -72 203t-194 67q-201 0 -264 -143q-24 -53 -24 -123z" />
<glyph unicode="h" horiz-adv-x="1309" d="M193 0v1664h167v-507l-8 -156q126 98 296 140q65 16 142 16q172 0 252.5 -107t80.5 -373v-677h-167v689q0 187 -53.5 257.5t-184.5 70.5q-177 0 -358 -138v-879h-167z" />
<glyph unicode="i" horiz-adv-x="588" d="M183 1490q0 67 38 103.5t88.5 36.5t77 -32t26.5 -71q0 -99 -77 -130q-22 -9 -45 -9q-47 0 -77.5 31.5t-30.5 70.5zM211 0v1139h166v-1139h-166z" />
<glyph unicode="j" horiz-adv-x="562" d="M-95 -370q51 -19 116 -19q100 0 145 82.5t45 265.5v1180h166v-1116q0 -408 -191 -499q-63 -31 -159 -31t-122 13v124zM181 1490q0 67 38 103.5t88.5 36.5t77 -32t26.5 -71q0 -99 -77 -130q-22 -9 -45 -9q-47 0 -77.5 31.5t-30.5 70.5z" />
<glyph unicode="k" horiz-adv-x="1166" d="M188 0v1661h166v-953l-4 -123l537 554h198l-445 -447l494 -692h-191l-414 581l-179 -180l4 -177v-224h-166z" />
<glyph unicode="l" horiz-adv-x="594" d="M214 0v1664h167v-1664h-167z" />
<glyph unicode="m" horiz-adv-x="1978" d="M193 0v1139h149l1 -146q122 99 299 147q65 17 122 17q113 0 178.5 -34t101.5 -119q124 97 293 138q64 15 139 15q165 0 240.5 -100.5t75.5 -353.5v-703h-166v695q0 175 -44 248.5t-187 73.5t-322 -123q13 -72 13 -186v-708h-167v697q0 182 -43 250.5t-168 68.5t-272 -86 q-42 -24 -76 -52v-878h-167z" />
<glyph unicode="n" horiz-adv-x="1288" d="M193 0v1139h149l1 -146q128 98 295 145q66 19 143 19q170 0 246 -101t76 -351v-705h-167v706q0 177 -49 244.5t-178 67.5t-276 -89q-41 -25 -73 -51v-878h-167z" />
<glyph unicode="o" horiz-adv-x="1223" d="M104 592q0 129 41.5 237.5t111.5 180.5q140 146 379 146t369 -180q112 -156 112 -420t-144.5 -418t-385.5 -154t-372 182q-111 157 -111 426zM274 590q0 -212 84 -349.5t247 -137.5t253 122t90 336q0 327 -182 436q-64 38 -147 38q-163 0 -254 -116.5t-91 -328.5z" />
<glyph unicode="p" horiz-adv-x="1247" d="M187 -506v1646h150l1 -133q149 149 348 149t328.5 -138.5t129.5 -411.5t-157 -447.5t-412 -174.5q-126 0 -225 38l3 -161v-367h-166zM353 163q67 -57 235 -57t277 129t109 351.5t-85.5 330.5t-243 108t-292.5 -116v-746z" />
<glyph unicode="q" horiz-adv-x="1238" d="M102 533.5q0 273.5 157.5 448t414.5 174.5q131 0 241 -42v2l145 28v-1650h-167v367l4 259q-142 -136 -339 -136t-326.5 138t-129.5 411.5zM273 555.5q0 -221.5 83.5 -331t243.5 -109.5t293 114v749q-66 56 -234.5 56t-277 -128.5t-108.5 -350z" />
<glyph unicode="r" horiz-adv-x="826" d="M185 0v1139h142l10 -152q76 98 237 151q54 18 120.5 18t97.5 -13v-157q-46 23 -117 23q-191 0 -323 -132v-877h-167z" />
<glyph unicode="s" horiz-adv-x="984" d="M123 66l26 126q68 -47 225 -74q60 -10 111 -10q105 0 172 44q70 47 70 133q0 112 -172 186q-49 21 -107.5 45t-117.5 56q-198 110 -198 291q0 144 113.5 218.5t265.5 74.5t268 -40q29 -10 44 -19l-28 -127q-54 40 -177 56q-40 6 -82 6q-123 0 -186 -44t-63 -116 q0 -114 147 -186q46 -22 102 -44q153 -58 230 -120q117 -94 117 -234t-107.5 -222t-281.5 -82t-307 51q-39 15 -64 31z" />
<glyph unicode="t" horiz-adv-x="849" d="M81 1014v91q28 8 56 14t67.5 17.5t49 36t25 107t27.5 120.5h100v-260h354v-126h-354v-650q0 -161 34 -208q27 -38 110 -38q61 0 128.5 19t93.5 38l29 -97q-72 -59 -219 -86q-43 -8 -89 -8q-116 0 -175 52q-78 66 -78 234v744h-159z" />
<glyph unicode="u" horiz-adv-x="1249" d="M183 471v669h166v-676q0 -209 49 -275.5t177.5 -66.5t261.5 70q36 19 60 37v911h167v-1152h-64q-66 0 -78 32q-6 13 -6 36v61q-190 -133 -429 -133q-80 0 -146 35.5t-101 99.5q-57 104 -57 352z" />
<glyph unicode="v" horiz-adv-x="1114" d="M37 1140h180l259 -708l90 -278l84 278l249 708h178l-442 -1158h-142z" />
<glyph unicode="w" horiz-adv-x="1635" d="M39 1140h167l229 -783l43 -180l40 180l221 783h165l223 -783l42 -184l43 179l221 788h163l-355 -1158h-154l-237 837l-30 147l-32 -147l-232 -837h-158z" />
<glyph unicode="x" horiz-adv-x="1137" d="M74 0l406 576l-406 564h189l272 -398l38 -62l36 67l272 393h187l-408 -561l411 -579h-193l-275 407l-40 63l-37 -70l-261 -400h-191z" />
<glyph unicode="y" horiz-adv-x="1107" d="M56 1140h178l350 -1006l303 1006h180l-392 -1169q-105 -314 -237 -413q-87 -65 -228 -65q-71 0 -90 14v137q41 -12 91 -12q107 0 188.5 82.5t133.5 285.5h-49z" />
<glyph unicode="z" horiz-adv-x="1072" d="M93 65l665 947h-616v128h812l29 -74l-665 -944h655v-122h-846z" />
<glyph unicode="{" horiz-adv-x="986" d="M118 724v110q134 45 173 63q78 38 78 72v575q0 116 25 147t55.5 40.5t115 9.5t258.5 -20v-92h-295v-657q0 -49 -37 -80q-35 -35 -109 -69t-99 -45q162 -71 203.5 -112.5t41.5 -83.5v-664h295v-85q-121 -28 -232 -28t-141 9.5t-48 31.5q-33 42 -33 156v583q0 48 -158 108 q-45 17 -93 31z" />
<glyph unicode="|" horiz-adv-x="842" d="M344 -187v1967h154v-1967h-154z" />
<glyph unicode="}" horiz-adv-x="986" d="M163 -82v-85q121 -28 232 -28t141 9.5t48 31.5q33 42 33 156v583q0 48 158 108q45 17 93 31v110q-134 45 -173 63q-78 38 -78 72v575q0 116 -25 147t-55.5 40.5t-115 9.5t-258.5 -20v-92h295v-657q0 -49 37 -80q35 -35 109 -69t99 -45q-162 -71 -203.5 -112.5 t-41.5 -83.5v-664h-295z" />
<glyph unicode="~" horiz-adv-x="1438" d="M222 776q32 72 116 135.5t191 63.5t209 -86q64 -55 102 -70.5t76 -15.5q130 0 220 125l79 -76q-54 -127 -197 -175q-51 -17 -105.5 -17t-90.5 13t-66 32t-56 41q-98 87 -177 87q-124 0 -213 -126z" />
<glyph />
<glyph unicode="&#xa1;" horiz-adv-x="601" d="M185 1209q0 106 75 141q22 10 57 10t68 -35t33 -78q0 -71 -36.5 -111.5t-73.5 -40.5q-63 0 -93 35.5t-30 78.5zM204 -436l18 1307h148l21 -1307h-187z" />
<glyph unicode="&#xa2;" horiz-adv-x="1194" d="M170 561q0 240 123.5 403.5t346.5 187.5l6 221h114l-6 -219q163 -10 231 -57l-29 -132q-84 62 -245.5 62t-270 -118t-108.5 -337.5t100.5 -340.5t263 -121t280.5 79l35 -96q-101 -92 -296 -107l-3 -202h-115l4 204q-203 21 -317 177t-114 396z" />
<glyph unicode="&#xa3;" horiz-adv-x="1546" d="M141 60q0 51 53 89.5t159 44.5q8 15 23 38q66 104 66 233v299h-183v116h183v177q0 214 125.5 347.5t336.5 133.5t330 -94l-80 -122q-98 89 -266 89q-191 0 -256 -195q-23 -70 -23 -172v-9v-155h385v-116h-384v-105v-23q0 -356 -106 -467h37q47 0 181 -36.5t240 -36.5 q273 0 273 231q0 81 -53 143q-16 20 -36 30l119 61q81 -49 117 -166q11 -38 11 -95.5t-23 -120.5q-74 -203 -388 -203q-121 0 -212.5 23.5t-175.5 50t-130 26.5t-73 -8q-68 -78 -164 -78q-52 0 -78 38q-8 11 -8 32z" />
<glyph unicode="&#xa4;" horiz-adv-x="1530" d="M216 277l200 200q-94 119 -94 274q0 154 93 272l-199 200l95 98l203 -205q114 76 251 76t251 -78l205 204l97 -96l-203 -203q91 -119 91 -269.5t-92 -267.5l200 -200l-96 -96l-202 202q-114 -78 -251 -78t-249 75l-203 -205zM457 751q0 -131 90.5 -223.5t217 -92.5 t216 93t89.5 223t-89.5 223t-216 93t-217 -92.5t-90.5 -223.5z" />
<glyph unicode="&#xa5;" horiz-adv-x="1542" d="M188 1522h182l330 -534l73 -139l69 144l336 529h178l-476 -723h365v-110h-390v-257h390v-110h-390v-322h-166v322h-406v110h406v257h-406v110h374z" />
<glyph unicode="&#xa6;" horiz-adv-x="842" d="M344 -186v831h154v-831h-154zM344 946v834h154v-834h-154z" />
<glyph unicode="&#xa7;" horiz-adv-x="1358" d="M218 783q0 170 140 303q-128 104 -128 256q0 180 156 264q125 67 340.5 67t333.5 -73l-33 -127q-105 74 -325 74t-292 -99q-27 -36 -27 -93t32.5 -103.5t86 -84t122 -68.5t140.5 -63q181 -81 262 -152q118 -104 118 -253.5t-116 -274.5q108 -90 108 -216 q0 -228 -265 -304q-99 -29 -198 -29q-161 0 -276 28.5t-170 64.5l33 127q79 -59 256 -85q63 -9 131 -9q145 0 241 46.5t96 143.5t-120 169q-63 38 -199 92t-205 88q-242 118 -242 311zM371 810q0 -145 197 -236q63 -30 186.5 -78.5t180.5 -78.5q57 107 57 178t-24.5 117 t-66.5 82.5t-97 65.5t-116 56t-123.5 53.5t-118.5 58.5q-75 -121 -75 -218z" />
<glyph unicode="&#xa8;" horiz-adv-x="782" d="M57 1502q0 63 36 97t82 34q99 0 99 -105q0 -54 -34.5 -87t-79.5 -33t-74 27.5t-29 66.5zM509 1502q0 63 36 97t81 34q99 0 99 -105q0 -54 -34.5 -87t-79.5 -33t-73.5 27.5t-28.5 66.5z" />
<glyph unicode="&#xa9;" horiz-adv-x="2133" d="M204 964q0 360 251 614q78 79 174 135q202 118 437 118t433 -115.5t314 -314.5t116 -436q0 -238 -116 -437.5t-313.5 -316t-433.5 -116.5t-433 116t-313 316t-116 437zM313 965q0 -322 216 -545q138 -144 333 -198q97 -28 204 -28q210 0 382.5 103t271.5 280t99 388 q0 320 -216 543q-138 144 -333 198q-97 28 -204 28q-210 0 -382.5 -103t-271.5 -280t-99 -386zM627 968.5q0 207.5 128 345t360 137.5q142 0 242 -64l-26 -124q-96 68 -238.5 68t-230 -99t-87.5 -263.5t86 -266t223.5 -101.5t257.5 66l35 -96q-46 -37 -126 -63.5t-181 -26.5 q-199 0 -321 140t-122 347.5z" />
<glyph unicode="&#xaa;" horiz-adv-x="1032" d="M139 924q0 174 179 241q151 57 399 57v79q0 104 -49 141t-163.5 37t-249.5 -59q-33 -15 -49 -27l-43 93q35 32 151 71.5t206 39.5q178 0 263 -66.5t85 -226.5v-619h-54q-52 0 -70 8t-18 48v31q-116 -94 -294 -94q-125 0 -209 64t-84 182zM287 930.5q0 -64.5 49 -102.5 t137.5 -38t198.5 47q28 12 45 23v268q-236 0 -305 -32.5t-97 -66.5t-28 -98.5z" />
<glyph unicode="&#xab;" horiz-adv-x="1931" d="M245 542v141l653 448l44 -125l-534 -391l534 -388l-44 -121zM971 542v141l653 448l44 -125l-534 -391l534 -388l-44 -121z" />
<glyph unicode="&#xac;" horiz-adv-x="1470" d="M235 726v126h990v-529h-152v403h-838z" />
<glyph unicode="&#xad;" horiz-adv-x="1350" d="M247 705v135h856v-135h-856z" />
<glyph unicode="&#xae;" horiz-adv-x="2133" d="M204 964q0 360 251 614q78 79 174 135q202 118 437 118t433 -115.5t314 -314.5t116 -436q0 -238 -116 -437.5t-313.5 -316t-433.5 -116.5t-433 116t-313 316t-116 437zM313 965q0 -322 216 -545q138 -144 333 -198q97 -28 204 -28q210 0 382.5 103t271.5 280t99 388 q0 320 -216 543q-138 144 -333 198q-97 28 -204 28q-210 0 -382.5 -103t-271.5 -280t-99 -386zM752 482v962h74l250 6q178 0 267.5 -75t89.5 -194q0 -248 -220 -298q70 -44 143 -203q35 -75 68.5 -123.5t51.5 -74.5l-156 1q-44 54 -80 138.5t-59 124.5q-55 97 -122 117h-172 v-381h-135zM887 964q24 -3 95 -3h79q113 2 172.5 49.5t59.5 153.5q0 185 -243 185q-62 0 -163 -10v-375z" />
<glyph unicode="&#xaf;" horiz-adv-x="643" d="M50 1452v124h543v-124h-543z" />
<glyph unicode="&#xb0;" horiz-adv-x="909" d="M121 1278.5q0 142.5 96 236.5t236.5 94t237 -95t96.5 -236.5t-94.5 -236t-235 -94.5t-238.5 94.5t-98 237zM232 1278.5q0 -96.5 64.5 -162.5t159 -66t158 65t63.5 161.5t-64.5 162.5t-159 66t-158 -65t-63.5 -161.5z" />
<glyph unicode="&#xb1;" horiz-adv-x="1393" d="M232 706v134h237l163 -8l-5 171v244h136v-244l-6 -171l149 8h255v-134h-255l-149 5l6 -172v-251h-136v251l5 172l-163 -5h-237zM251 0v126h890v-126h-890z" />
<glyph unicode="&#xb2;" horiz-adv-x="1194" d="M177 1501q81 126 269 179q63 17 146 17q164 0 255 -88t91 -215q-4 -319 -478 -593l545 4v-126h-774l-33 86q200 96 372 253q205 186 205 349q0 105 -58.5 157t-164.5 52q-180 0 -305 -159z" />
<glyph unicode="&#xb3;" horiz-adv-x="1194" d="M255 1591q85 71 239 99q49 9 109 9q136 0 225 -65.5t89 -171.5q0 -183 -216 -272q143 -4 215 -81t72 -163q0 -165 -115 -261.5t-336 -96.5q-108 0 -229 38l-10 110q106 -34 207 -34q175 1 248.5 62.5t73.5 161.5v24.5t-16 57t-47 61.5q-67 55 -180 57l-119 -33l-29 98 q79 16 163 50q165 68 165 198q0 108 -121 141q-31 9 -71 9q-144 0 -269 -90z" />
<glyph unicode="&#xb4;" horiz-adv-x="557" d="M50 1383q227 247 337 398l120 -103q-71 -104 -251 -266q-76 -69 -120 -97z" />
<glyph unicode="&#xb5;" horiz-adv-x="1359" d="M216 -371v1511h166v-756q0 -267 263 -269q134 0 288 120v905h166v-912q0 -88 23 -102q8 -5 18 -5q40 0 90 42l24 -76q-15 -28 -72.5 -64t-118.5 -36q-108 0 -108 133v18q-146 -154 -336 -154t-271 129l24 -484h-156z" />
<glyph unicode="&#xb6;" horiz-adv-x="1319" d="M91 1261.5q0 216.5 143 333t415 116.5l445 -22v-1689h-140v1579l-252 7h-30v-1586h-140v832q-223 0 -332 106.5t-109 323z" />
<glyph unicode="&#xb7;" horiz-adv-x="592" d="M180.5 733q-0.5 56 36.5 97.5t88 41.5t79.5 -37t28.5 -79q0 -71 -35.5 -110t-72 -39t-56 9t-35.5 25q-33 36 -33.5 92z" />
<glyph unicode="&#xb8;" horiz-adv-x="468" d="M48 -436l12 109q29 -18 89.5 -18t99.5 38t44 127q3 34 3 86.5t-28 114.5l64 4l34 -4q52 -69 52 -209q0 -217 -147 -264q-40 -12 -71 -12q-110 0 -152 28z" />
<glyph unicode="&#xb9;" horiz-adv-x="1009" d="M208 1494q121 35 292 152q40 27 58 42l82 -21v-1005h-161v825q-29 -8 -108 -41t-131 -44z" />
<glyph unicode="&#xba;" horiz-adv-x="1033" d="M113 1140q0 231 139 354q115 103 290 103t275.5 -125t100.5 -345.5t-131 -346.5q-109 -105 -286 -105q-85 0 -160 33q-148 67 -202 245q-26 84 -26 187zM272 1148q0 -257 142 -335q44 -24 101 -24q114 0 178.5 83t66.5 257q0 256 -135 331q-89 50 -198 6q-45 -19 -80 -59 q-75 -88 -75 -259z" />
<glyph unicode="&#xbb;" horiz-adv-x="1931" d="M262 227l44 -121l653 436v141l-653 448l-44 -125l534 -391zM988 227l44 -121l653 436v141l-653 448l-44 -125l534 -391z" />
<glyph unicode="&#xbc;" horiz-adv-x="2428" d="M216 1494q121 35 292 152q40 27 58 42l82 -21v-1005h-161v825q-29 -8 -108 -41t-131 -44zM763 0l539 1530h152l-541 -1530h-150zM1333 300l474 832h52l99 -59l-384 -629l-56 -100h397v2l6 280l149 16v-298h192l1 -116h-193v-283h-156v283h-540z" />
<glyph unicode="&#xbd;" horiz-adv-x="2428" d="M216 1494q121 35 292 152q40 27 58 42l82 -21v-1005h-161v825q-29 -8 -108 -41t-131 -44zM764 0l539 1530h152l-541 -1530h-150zM1448 820q81 126 269 179q63 17 146 17q164 0 255 -88t91 -215q-4 -319 -478 -593l545 4v-126h-774l-33 86q200 96 372 253q205 186 205 349 q0 105 -58.5 157t-164.5 52q-180 0 -305 -159z" />
<glyph unicode="&#xbe;" horiz-adv-x="2428" d="M108 1591q85 71 239 99q49 9 109 9q136 0 225 -65.5t89 -171.5q0 -183 -216 -272q143 -4 215 -81t72 -163q0 -165 -115 -261.5t-336 -96.5q-108 0 -229 38l-10 110q106 -34 207 -34q175 1 248.5 62.5t73.5 161.5v24.5t-16 57t-47 61.5q-67 55 -180 57l-119 -33l-29 98 q79 16 163 50q165 68 165 198q0 108 -121 141q-31 9 -71 9q-144 0 -269 -90zM763 0l539 1530h152l-541 -1530h-150zM1333 300l474 832h52l99 -59l-384 -629l-56 -100h397v2l6 280l149 16v-298h192l1 -116h-193v-283h-156v283h-540z" />
<glyph unicode="&#xbf;" horiz-adv-x="1047" d="M114 160q0 138 45 206t96 112t108.5 79t107 69t82.5 71t35 68.5t2 46.5q0 81 -58 246l127 1q57 -76 83 -207q9 -49 9 -90t-18 -75t-49 -65t-71 -59t-83 -55q-124 -81 -160 -114q-74 -69 -83 -142q-8 -45 -8 -90q0 -135 91 -222q119 -112 359 -112q124 0 183 24v-123 q-26 -23 -100.5 -32.5t-108.5 -9.5q-325 0 -480 171q-109 122 -109 302zM429 1393q0 103 74 137q22 10 55.5 10t66 -34.5t32.5 -75.5q0 -68 -36 -108t-73 -40q-61 0 -90 35t-29 76z" />
<glyph unicode="&#xc0;" horiz-adv-x="1393" d="M33 0l588 1538h166l574 -1538h-183l-147 418h-665l-153 -418h-180zM360 1873l111 102q33 -36 122 -116t136 -122.5t89 -76.5l-71 -71q-136 68 -303 206q-49 41 -84 78zM412 545h575l-244 695l-38 120l-38 -121z" />
<glyph unicode="&#xc1;" horiz-adv-x="1393" d="M33 0l588 1538h166l574 -1538h-183l-147 418h-665l-153 -418h-180zM412 545h575l-244 695l-38 120l-38 -121zM579 1660q42 34 89 76.5t86 77.5q139 125 172 161l111 -102q-126 -126 -288 -229q-52 -32 -98 -55z" />
<glyph unicode="&#xc2;" horiz-adv-x="1393" d="M33 0l588 1538h166l574 -1538h-183l-147 418h-665l-153 -418h-180zM346 1684l277 298h149l280 -296l-110 -47l-244 223l-248 -223zM412 545h575l-244 695l-38 120l-38 -121z" />
<glyph unicode="&#xc3;" horiz-adv-x="1393" d="M33 0l588 1538h166l574 -1538h-183l-147 418h-665l-153 -418h-180zM288 1767q32 72 109 124.5t164 52.5t162 -75q47 -47 75.5 -61t58.5 -14q100 0 186 105l67 -56q-32 -72 -110 -124t-138 -52t-90.5 11.5t-54 28.5t-42.5 37t-52.5 48.5t-83.5 28.5q-96 0 -185 -108z M412 545h575l-244 695l-38 120l-38 -121z" />
<glyph unicode="&#xc4;" horiz-adv-x="1393" d="M33 0l588 1538h166l574 -1538h-183l-147 418h-665l-153 -418h-180zM346 1786q0 66 36.5 101t84.5 35q104 0 104 -109q0 -86 -75 -115q-22 -8 -55.5 -8t-64 27.5t-30.5 68.5zM412 545h575l-244 695l-38 120l-38 -121zM825 1786q0 65 37 100.5t84 35.5q105 0 105 -109 q0 -86 -75 -115q-22 -8 -56 -8t-64.5 27.5t-30.5 68.5z" />
<glyph unicode="&#xc5;" horiz-adv-x="1393" d="M33 0l561 1469q-99 23 -152.5 86.5t-53.5 158.5q0 134 92 196t219 62q221 0 287 -144q21 -47 20 -104q0 -103 -53.5 -165.5t-141.5 -85.5l550 -1473h-183l-147 418h-665l-153 -418h-180zM412 545h575l-244 695l-38 120l-38 -121zM507 1705q0 -61 49 -104t139 -45 q137 0 179 87q15 31 15 73q0 80 -53 120.5t-138 40.5q-128 0 -174 -81q-17 -30 -17 -91z" />
<glyph unicode="&#xc6;" horiz-adv-x="1850" d="M-55 0l731 1522h1034v-131h-702v-541h526v-131h-526v-586h776v-133h-945v417h-506l-199 -417h-189zM393 544h446v866h-32z" />
<glyph unicode="&#xc7;" horiz-adv-x="1328" d="M107 771.5q0 347.5 199 557t497 209.5q202 0 341 -43q33 -10 56 -15l-24 -150q-17 6 -44 17.5t-103 32t-206 20.5q-253 0 -400.5 -168t-147.5 -459t141 -473t386 -182q195 0 338 61q37 16 57 29l2 -144q-32 -11 -65 -24q-125 -47 -285 -54q31 -70 31 -174 q0 -217 -147 -264q-40 -12 -71 -12q-110 0 -152 28l12 109q29 -18 89.5 -18t99.5 38q47 46 47 183q0 62 -15 110q-291 18 -463.5 228t-172.5 557.5z" />
<glyph unicode="&#xc8;" horiz-adv-x="1203" d="M206 0v1522h858v-131h-689v-539h503v-131h-503v-588h762v-133h-931zM335 1873l111 102q33 -36 122 -116t136 -122.5t89 -76.5l-71 -71q-136 68 -303 206q-49 41 -84 78z" />
<glyph unicode="&#xc9;" horiz-adv-x="1203" d="M206 0v1522h858v-131h-689v-539h503v-131h-503v-588h762v-133h-931zM553 1660q42 34 89 76.5t86 77.5q139 125 172 161l111 -102q-126 -126 -288 -229q-52 -32 -98 -55z" />
<glyph unicode="&#xca;" horiz-adv-x="1203" d="M206 0v1522h858v-131h-689v-539h503v-131h-503v-588h762v-133h-931zM321 1684l277 298h149l280 -296l-110 -47l-244 223l-248 -223z" />
<glyph unicode="&#xcb;" horiz-adv-x="1203" d="M206 0v1522h858v-131h-689v-539h503v-131h-503v-588h762v-133h-931zM321 1786q0 66 36.5 101t84.5 35q104 0 104 -109q0 -86 -75 -115q-22 -8 -55.5 -8t-64 27.5t-30.5 68.5zM800 1786q0 65 37 100.5t84 35.5q105 0 105 -109q0 -86 -75 -115q-22 -8 -56 -8t-64.5 27.5 t-30.5 68.5z" />
<glyph unicode="&#xcc;" horiz-adv-x="613" d="M-30 1873l111 102q33 -36 122 -116t136 -122.5t89 -76.5l-71 -71q-136 68 -303 206q-49 41 -84 78zM221 0v1522h171v-1522h-171z" />
<glyph unicode="&#xcd;" horiz-adv-x="613" d="M188 1660q42 34 89 76.5t86 77.5q139 125 172 161l111 -102q-126 -126 -288 -229q-52 -32 -98 -55zM221 0v1522h171v-1522h-171z" />
<glyph unicode="&#xce;" horiz-adv-x="613" d="M-44 1684l277 298h149l280 -296l-110 -47l-244 223l-248 -223zM221 0v1522h171v-1522h-171z" />
<glyph unicode="&#xcf;" horiz-adv-x="613" d="M-44 1786q0 66 36.5 101t84.5 35q104 0 104 -109q0 -86 -75 -115q-22 -8 -55.5 -8t-64 27.5t-30.5 68.5zM221 0v1522h171v-1522h-171zM435 1786q0 65 37 100.5t84 35.5q105 0 105 -109q0 -86 -75 -115q-22 -8 -56 -8t-64.5 27.5t-30.5 68.5z" />
<glyph unicode="&#xd0;" horiz-adv-x="1479" d="M62 737v114h144v671h60l60 1l338 13q358 0 539 -190t181 -555t-194.5 -586t-532.5 -221l-340 14l-93 2h-18v737h-144zM375 128q337 -47 510 24q100 40 171 122q152 174 152 515q0 480 -329 588q-110 36 -234 36t-270 -14v-548h434v-114h-434v-609z" />
<glyph unicode="&#xd1;" horiz-adv-x="1553" d="M205 0v1522h157l701 -1060l142 -247l-12 311v996h155v-1522h-155l-687 1034l-156 265l11 -329v-970h-156zM377 1767q32 72 109 124.5t164 52.5t162 -75q47 -47 75.5 -61t58.5 -14q100 0 186 105l67 -56q-32 -72 -110 -124t-138 -52t-90.5 11.5t-54 28.5t-42.5 37 t-52.5 48.5t-83.5 28.5q-96 0 -185 -108z" />
<glyph unicode="&#xd2;" horiz-adv-x="1572" d="M110 767.5q0 180.5 57.5 329.5t151.5 245q190 196 492 196t475.5 -208t173.5 -544q0 -382 -194 -592t-503 -210q-148 0 -267 54q-252 116 -343 408q-43 141 -43 321.5zM281 750q0 -127 31 -240q67 -243 252 -345q93 -51 212 -51q237 0 374 172.5t138 468t-126.5 475 t-356.5 179.5t-376.5 -169.5t-147.5 -489.5zM470 1873l111 102q33 -36 122 -116t136 -122.5t89 -76.5l-71 -71q-136 68 -303 206q-49 41 -84 78z" />
<glyph unicode="&#xd3;" horiz-adv-x="1572" d="M110 767.5q0 180.5 57.5 329.5t151.5 245q190 196 492 196t475.5 -208t173.5 -544q0 -382 -194 -592t-503 -210q-148 0 -267 54q-252 116 -343 408q-43 141 -43 321.5zM281 750q0 -127 31 -240q67 -243 252 -345q93 -51 212 -51q237 0 374 172.5t138 468t-126.5 475 t-356.5 179.5t-376.5 -169.5t-147.5 -489.5zM689 1660q42 34 89 76.5t86 77.5q139 125 172 161l111 -102q-126 -126 -288 -229q-52 -32 -98 -55z" />
<glyph unicode="&#xd4;" horiz-adv-x="1572" d="M110 767.5q0 180.5 57.5 329.5t151.5 245q190 196 492 196t475.5 -208t173.5 -544q0 -382 -194 -592t-503 -210q-148 0 -267 54q-252 116 -343 408q-43 141 -43 321.5zM281 750q0 -127 31 -240q67 -243 252 -345q93 -51 212 -51q237 0 374 172.5t138 468t-126.5 475 t-356.5 179.5t-376.5 -169.5t-147.5 -489.5zM457 1684l277 298h149l280 -296l-110 -47l-244 223l-248 -223z" />
<glyph unicode="&#xd5;" horiz-adv-x="1572" d="M110 767.5q0 180.5 57.5 329.5t151.5 245q190 196 492 196t475.5 -208t173.5 -544q0 -382 -194 -592t-503 -210q-148 0 -267 54q-252 116 -343 408q-43 141 -43 321.5zM281 750q0 -127 31 -240q67 -243 252 -345q93 -51 212 -51q237 0 374 172.5t138 468t-126.5 475 t-356.5 179.5t-376.5 -169.5t-147.5 -489.5zM399 1767q32 72 109 124.5t164 52.5t162 -75q47 -47 75.5 -61t58.5 -14q100 0 186 105l67 -56q-32 -72 -110 -124t-138 -52t-90.5 11.5t-54 28.5t-42.5 37t-52.5 48.5t-83.5 28.5q-96 0 -185 -108z" />
<glyph unicode="&#xd6;" horiz-adv-x="1572" d="M110 767.5q0 180.5 57.5 329.5t151.5 245q190 196 492 196t475.5 -208t173.5 -544q0 -382 -194 -592t-503 -210q-148 0 -267 54q-252 116 -343 408q-43 141 -43 321.5zM281 750q0 -127 31 -240q67 -243 252 -345q93 -51 212 -51q237 0 374 172.5t138 468t-126.5 475 t-356.5 179.5t-376.5 -169.5t-147.5 -489.5zM457 1786q0 66 36.5 101t84.5 35q104 0 104 -109q0 -86 -75 -115q-22 -8 -55.5 -8t-64 27.5t-30.5 68.5zM936 1786q0 65 37 100.5t84 35.5q105 0 105 -109q0 -86 -75 -115q-22 -8 -56 -8t-64.5 27.5t-30.5 68.5z" />
<glyph unicode="&#xd7;" horiz-adv-x="1370" d="M250 424l348 347l-348 356l99 97l337 -362l336 362l99 -97l-348 -353l348 -350l-99 -98l-336 354l-337 -354z" />
<glyph unicode="&#xd8;" horiz-adv-x="1572" d="M110 741q0 387 209 601q188 194 490 196q101 0 193 -26l78 218l96 -28l-81 -225q176 -84 270.5 -266t94.5 -427q0 -380 -194 -590t-502 -210q-106 0 -196 27l-74 -205l-96 27l77 215q-177 87 -271 272.5t-94 420.5zM281 768q0 -302 138 -479q46 -60 107 -101l430 1197 q-71 24 -166.5 23.5t-190.5 -41.5t-166 -122q-152 -175 -152 -477zM615 142q76 -28 158 -28q240 0 377 172.5t138 474t-137 481.5q-45 59 -105 98z" />
<glyph unicode="&#xd9;" horiz-adv-x="1474" d="M171 644v879h169l-1 -839q0 -458 237 -540q77 -27 170 -27q195 0 292.5 127.5t97.5 440.5v837h168v-877q0 -661 -560 -661q-439 0 -540 376q-33 123 -33 284zM410 1873l111 102q33 -36 122 -116t136 -122.5t89 -76.5l-71 -71q-136 68 -303 206q-49 41 -84 78z" />
<glyph unicode="&#xda;" horiz-adv-x="1474" d="M171 644v879h169l-1 -839q0 -458 237 -540q77 -27 170 -27q195 0 292.5 127.5t97.5 440.5v837h168v-877q0 -661 -560 -661q-439 0 -540 376q-33 123 -33 284zM629 1660q42 34 89 76.5t86 77.5q139 125 172 161l111 -102q-126 -126 -288 -229q-52 -32 -98 -55z" />
<glyph unicode="&#xdb;" horiz-adv-x="1474" d="M171 644v879h169l-1 -839q0 -458 237 -540q77 -27 170 -27q195 0 292.5 127.5t97.5 440.5v837h168v-877q0 -661 -560 -661q-439 0 -540 376q-33 123 -33 284zM396 1684l277 298h149l280 -296l-110 -47l-244 223l-248 -223z" />
<glyph unicode="&#xdc;" horiz-adv-x="1474" d="M171 644v879h169l-1 -839q0 -458 237 -540q77 -27 170 -27q195 0 292.5 127.5t97.5 440.5v837h168v-877q0 -661 -560 -661q-439 0 -540 376q-33 123 -33 284zM396 1786q0 66 36.5 101t84.5 35q104 0 104 -109q0 -86 -75 -115q-22 -8 -55.5 -8t-64 27.5t-30.5 68.5z M875 1786q0 65 37 100.5t84 35.5q105 0 105 -109q0 -86 -75 -115q-22 -8 -56 -8t-64.5 27.5t-30.5 68.5z" />
<glyph unicode="&#xdd;" horiz-adv-x="1249" d="M31 1522h181l374 -701l51 -115l44 115l359 701h179l-499 -935v-587h-172v584zM526 1660q42 34 89 76.5t86 77.5q139 125 172 161l111 -102q-126 -126 -288 -229q-52 -32 -98 -55z" />
<glyph unicode="&#xde;" horiz-adv-x="1269" d="M206 0v1522h169v-292q241 18 327 18t182 -26.5t162 -82.5q139 -117 139 -354t-149.5 -365t-418.5 -128q-26 0 -242 12v-304h-169zM375 429q117 -14 217 -14q206 0 315 86t109 289q0 336 -385 336q-123 0 -256 -22v-675z" />
<glyph unicode="&#xdf;" horiz-adv-x="1271" d="M44 1014v99l160 30q38 219 177 327.5t336 108.5q152 0 258.5 -70t106.5 -203.5t-113 -250.5q-74 -77 -93.5 -111.5t-19.5 -77.5t27.5 -81.5t68.5 -73.5t90 -71q185 -135 185 -329q0 -167 -127 -253q-108 -74 -262 -74t-236 33v132q91 -47 237.5 -47t200.5 105 q18 36 18 92t-26.5 101.5t-66.5 84t-86 73.5q-178 138 -178 297q0 94 107.5 209.5t107.5 221.5q0 91 -63 132.5t-150 41.5q-345 0 -345 -485v-975h-167v1014h-147z" />
<glyph unicode="&#xe0;" horiz-adv-x="1145" d="M110 320.5q0 93.5 63 171.5q131 162 527 186q56 4 101 4v132q0 130 -63.5 173t-196.5 43t-280 -64q-39 -17 -61 -33l-41 110q93 62 281 100q69 14 147 14q183 0 273 -68q107 -81 107 -282v-823h-68q-49 0 -68.5 14t-19.5 66l-1 42q-88 -80 -238 -111q-54 -11 -122.5 -11 t-132 21.5t-109.5 62.5t-72 100t-26 152.5zM231 1678l120 103q90 -118 337 -398l-85 -68q-72 48 -192 162.5t-180 200.5zM275 330q0 -221 231 -221q141 0 258 71q27 17 37 28v367q-133 0 -225 -19t-128 -34q-173 -64 -173 -192z" />
<glyph unicode="&#xe1;" horiz-adv-x="1145" d="M110 320.5q0 93.5 63 171.5q131 162 527 186q56 4 101 4v132q0 130 -63.5 173t-196.5 43t-280 -64q-39 -17 -61 -33l-41 110q93 62 281 100q69 14 147 14q183 0 273 -68q107 -81 107 -282v-823h-68q-49 0 -68.5 14t-19.5 66l-1 42q-88 -80 -238 -111q-54 -11 -122.5 -11 t-132 21.5t-109.5 62.5t-72 100t-26 152.5zM275 330q0 -221 231 -221q141 0 258 71q27 17 37 28v367q-133 0 -225 -19t-128 -34q-173 -64 -173 -192zM461 1383q227 247 337 398l120 -103q-71 -104 -251 -266q-76 -69 -120 -97z" />
<glyph unicode="&#xe2;" horiz-adv-x="1145" d="M110 320.5q0 93.5 63 171.5q131 162 527 186q56 4 101 4v132q0 130 -63.5 173t-196.5 43t-280 -64q-39 -17 -61 -33l-41 110q93 62 281 100q69 14 147 14q183 0 273 -68q107 -81 107 -282v-823h-68q-49 0 -68.5 14t-19.5 66l-1 42q-88 -80 -238 -111q-54 -11 -122.5 -11 t-132 21.5t-109.5 62.5t-72 100t-26 152.5zM212 1345l297 347h149l291 -346l-103 -44l-263 263l-274 -263zM275 330q0 -221 231 -221q141 0 258 71q27 17 37 28v367q-133 0 -225 -19t-128 -34q-173 -64 -173 -192z" />
<glyph unicode="&#xe3;" horiz-adv-x="1145" d="M110 320.5q0 93.5 63 171.5q131 162 527 186q56 4 101 4v132q0 130 -63.5 173t-196.5 43t-280 -64q-39 -17 -61 -33l-41 110q93 62 281 100q69 14 147 14q183 0 273 -68q107 -81 107 -282v-823h-68q-49 0 -68.5 14t-19.5 66l-1 42q-88 -80 -238 -111q-54 -11 -122.5 -11 t-132 21.5t-109.5 62.5t-72 100t-26 152.5zM170 1462q32 69 104 122.5t160.5 53.5t163.5 -74q49 -47 76.5 -60.5t58.5 -13.5q106 0 192 104l67 -56q-59 -118 -174 -160q-40 -15 -84.5 -15t-75.5 11t-55 27.5t-43 36t-50.5 47t-82.5 27.5q-100 0 -191 -104zM275 330 q0 -221 231 -221q141 0 258 71q27 17 37 28v367q-133 0 -225 -19t-128 -34q-173 -64 -173 -192z" />
<glyph unicode="&#xe4;" horiz-adv-x="1145" d="M110 320.5q0 93.5 63 171.5q131 162 527 186q56 4 101 4v132q0 130 -63.5 173t-196.5 43t-280 -64q-39 -17 -61 -33l-41 110q93 62 281 100q69 14 147 14q183 0 273 -68q107 -81 107 -282v-823h-68q-49 0 -68.5 14t-19.5 66l-1 42q-88 -80 -238 -111q-54 -11 -122.5 -11 t-132 21.5t-109.5 62.5t-72 100t-26 152.5zM249 1502q0 63 36 97t82 34q99 0 99 -105q0 -54 -34.5 -87t-79.5 -33t-74 27.5t-29 66.5zM275 330q0 -221 231 -221q141 0 258 71q27 17 37 28v367q-133 0 -225 -19t-128 -34q-173 -64 -173 -192zM701 1502q0 63 36 97t81 34 q99 0 99 -105q0 -54 -34.5 -87t-79.5 -33t-73.5 27.5t-28.5 66.5z" />
<glyph unicode="&#xe5;" horiz-adv-x="1145" d="M110 320.5q0 93.5 63 171.5q131 162 527 186q56 4 101 4v132q0 130 -63.5 173t-196.5 43t-280 -64q-39 -17 -61 -33l-41 110q93 62 281 100q69 14 147 14q183 0 273 -68q107 -81 107 -282v-823h-68q-49 0 -68.5 14t-19.5 66l-1 42q-88 -80 -238 -111q-54 -11 -122.5 -11 t-132 21.5t-109.5 62.5t-72 100t-26 152.5zM272 1568q0 100 28 150t72 80q86 60 211 60q220 0 286 -149q22 -48 21.5 -113t-26.5 -115.5t-69 -83.5t-99.5 -49t-122.5 -16t-124 19q-114 38 -157 139q-20 48 -20 78zM275 330q0 -221 231 -221q141 0 258 71q27 17 37 28v367 q-133 0 -225 -19t-128 -34q-173 -64 -173 -192zM391 1584.5q0 -61.5 49 -107.5t139 -48q135 0 179 93q15 32 15 74q0 80 -53 123.5t-138 43.5q-127 0 -174 -86q-17 -31 -17 -92.5z" />
<glyph unicode="&#xe6;" horiz-adv-x="1826" d="M110 284.5q0 129.5 65 207.5q158 190 624 190v119q0 140 -69 190q-54 39 -182 39t-280 -66q-40 -17 -64 -33l-42 112q90 60 288 100q69 14 135 14q139 0 222 -40.5t117 -141.5q141 181 395 181q178 0 288 -117.5t114 -310.5q0 -135 -8 -175h-748v-20q0 -225 113 -333 q93 -89 262 -89q126 0 253 47q37 13 60 28l33 -97q-92 -73 -278 -97q-57 -8 -110 -8q-282 0 -409 204q-167 -204 -428 -204q-155 0 -253 85.5t-98 215zM278 329q0 -220 225 -220q103 0 201 54.5t140 118.5q-43 117 -43 283v10q-228 0 -353 -53q-170 -63 -170 -193zM972 665 h592q1 21 1 58q0 125 -50 207q-66 107 -213 107q-205 0 -290 -203q-29 -70 -40 -169z" />
<glyph unicode="&#xe7;" horiz-adv-x="1012" d="M106 572q0 248 141 416t397 168q138 0 236 -38q26 -11 41 -21l-29 -132q-84 62 -245.5 62t-270 -118t-108.5 -337.5t100.5 -340.5t263 -121t280.5 79l35 -96q-108 -97 -316 -108q31 -70 31 -173q0 -217 -147 -264q-40 -12 -71 -12q-110 0 -152 28l12 109q29 -18 89.5 -18 t99.5 38q47 46 47 185q0 65 -16 111q-196 26 -307 180.5t-111 402.5z" />
<glyph unicode="&#xe8;" horiz-adv-x="1128" d="M104 565q0 264 136.5 427.5t380.5 163.5q177 0 288 -117t113 -327q2 -114 -7 -159h-748v-20q0 -221 113 -331q95 -92 264 -92q122 0 250 48q37 13 60 28l32 -97q-128 -105 -418 -105q-87 0 -180 40q-284 121 -284 541zM252 1678l120 103q90 -118 337 -398l-85 -68 q-72 48 -192 162.5t-180 200.5zM274 665h593q1 21 1 58q0 125 -50 207q-66 107 -213 107q-206 0 -291 -203q-29 -70 -40 -169z" />
<glyph unicode="&#xe9;" horiz-adv-x="1128" d="M104 565q0 264 136.5 427.5t380.5 163.5q177 0 288 -117t113 -327q2 -114 -7 -159h-748v-20q0 -221 113 -331q95 -92 264 -92q122 0 250 48q37 13 60 28l32 -97q-128 -105 -418 -105q-87 0 -180 40q-284 121 -284 541zM274 665h593q1 21 1 58q0 125 -50 207 q-66 107 -213 107q-206 0 -291 -203q-29 -70 -40 -169zM482 1383q227 247 337 398l120 -103q-71 -104 -251 -266q-76 -69 -120 -97z" />
<glyph unicode="&#xea;" horiz-adv-x="1128" d="M104 565q0 264 136.5 427.5t380.5 163.5q177 0 288 -117t113 -327q2 -114 -7 -159h-748v-20q0 -221 113 -331q95 -92 264 -92q122 0 250 48q37 13 60 28l32 -97q-128 -105 -418 -105q-87 0 -180 40q-284 121 -284 541zM233 1345l297 347h149l291 -346l-103 -44l-263 263 l-274 -263zM274 665h593q1 21 1 58q0 125 -50 207q-66 107 -213 107q-206 0 -291 -203q-29 -70 -40 -169z" />
<glyph unicode="&#xeb;" horiz-adv-x="1128" d="M104 565q0 264 136.5 427.5t380.5 163.5q177 0 288 -117t113 -327q2 -114 -7 -159h-748v-20q0 -221 113 -331q95 -92 264 -92q122 0 250 48q37 13 60 28l32 -97q-128 -105 -418 -105q-87 0 -180 40q-284 121 -284 541zM270 1502q0 63 36 97t82 34q99 0 99 -105 q0 -54 -34.5 -87t-79.5 -33t-74 27.5t-29 66.5zM274 665h593q1 21 1 58q0 125 -50 207q-66 107 -213 107q-206 0 -291 -203q-29 -70 -40 -169zM722 1502q0 63 36 97t81 34q99 0 99 -105q0 -54 -34.5 -87t-79.5 -33t-73.5 27.5t-28.5 66.5z" />
<glyph unicode="&#xec;" horiz-adv-x="588" d="M-57 1678l120 103q90 -118 337 -398l-85 -68q-72 48 -192 162.5t-180 200.5zM211 0v1139h166v-1139h-166z" />
<glyph unicode="&#xed;" horiz-adv-x="588" d="M172 1383q227 247 337 398l120 -103q-71 -104 -251 -266q-76 -69 -120 -97zM211 0v1139h166v-1139h-166z" />
<glyph unicode="&#xee;" horiz-adv-x="588" d="M-76 1345l297 347h149l291 -346l-103 -44l-263 263l-274 -263zM211 0v1139h166v-1139h-166z" />
<glyph unicode="&#xef;" horiz-adv-x="588" d="M-17 1502q0 63 36 97t82 34q98 0 98 -105q0 -54 -34.5 -87t-79 -33t-73.5 27.5t-29 66.5zM211 0v1139h166v-1139h-166zM389 1502q0 63 36 97t82 34q99 0 99 -105q0 -54 -34.5 -87t-79.5 -33t-74 27.5t-29 66.5z" />
<glyph unicode="&#xf0;" horiz-adv-x="1207" d="M109 560q0 275 141.5 435t369.5 160q156 -2 264 -112q-90 267 -313 440l-141 -160l-89 70l141 153q-131 83 -237 116l40 97q136 -42 278 -125q65 71 135 159l90 -69q-23 -27 -45 -51.5t-45.5 -51t-44.5 -48.5q101 -67 193 -180q270 -327 270 -781q0 -311 -137 -475 t-367 -164t-366.5 156t-136.5 431zM275 558.5q0 -218.5 96 -344.5t242.5 -126t241 124.5t94.5 340t-9 298.5q-37 121 -196 165q-54 14 -127.5 14t-139 -33.5t-110.5 -94.5q-92 -125 -92 -343.5z" />
<glyph unicode="&#xf1;" horiz-adv-x="1288" d="M193 0v1139h149l1 -146q128 98 295 145q66 19 143 19q170 0 246 -101t76 -351v-705h-167v706q0 177 -49 244.5t-178 67.5t-276 -89q-41 -25 -73 -51v-878h-167zM285 1462q32 69 104 122.5t160.5 53.5t163.5 -74q49 -47 76.5 -60.5t58.5 -13.5q106 0 192 104l67 -56 q-59 -118 -174 -160q-40 -15 -84.5 -15t-75.5 11t-55 27.5t-43 36t-50.5 47t-82.5 27.5q-100 0 -191 -104z" />
<glyph unicode="&#xf2;" horiz-adv-x="1223" d="M104 592q0 129 41.5 237.5t111.5 180.5q140 146 379 146t369 -180q112 -156 112 -420t-144.5 -418t-385.5 -154t-372 182q-111 157 -111 426zM269 1678l120 103q90 -118 337 -398l-85 -68q-72 48 -192 162.5t-180 200.5zM274 590q0 -212 84 -349.5t247 -137.5t253 122 t90 336q0 327 -182 436q-64 38 -147 38q-163 0 -254 -116.5t-91 -328.5z" />
<glyph unicode="&#xf3;" horiz-adv-x="1223" d="M104 592q0 129 41.5 237.5t111.5 180.5q140 146 379 146t369 -180q112 -156 112 -420t-144.5 -418t-385.5 -154t-372 182q-111 157 -111 426zM274 590q0 -212 84 -349.5t247 -137.5t253 122t90 336q0 327 -182 436q-64 38 -147 38q-163 0 -254 -116.5t-91 -328.5z M499 1383q227 247 337 398l120 -103q-71 -104 -251 -266q-76 -69 -120 -97z" />
<glyph unicode="&#xf4;" horiz-adv-x="1223" d="M104 592q0 129 41.5 237.5t111.5 180.5q140 146 379 146t369 -180q112 -156 112 -420t-144.5 -418t-385.5 -154t-372 182q-111 157 -111 426zM250 1345l297 347h149l291 -346l-103 -44l-263 263l-274 -263zM274 590q0 -212 84 -349.5t247 -137.5t253 122t90 336 q0 327 -182 436q-64 38 -147 38q-163 0 -254 -116.5t-91 -328.5z" />
<glyph unicode="&#xf5;" horiz-adv-x="1223" d="M104 592q0 129 41.5 237.5t111.5 180.5q140 146 379 146t369 -180q112 -156 112 -420t-144.5 -418t-385.5 -154t-372 182q-111 157 -111 426zM208 1462q32 69 104 122.5t160.5 53.5t163.5 -74q49 -47 76.5 -60.5t58.5 -13.5q106 0 192 104l67 -56q-59 -118 -174 -160 q-40 -15 -84.5 -15t-75.5 11t-55 27.5t-43 36t-50.5 47t-82.5 27.5q-100 0 -191 -104zM274 590q0 -212 84 -349.5t247 -137.5t253 122t90 336q0 327 -182 436q-64 38 -147 38q-163 0 -254 -116.5t-91 -328.5z" />
<glyph unicode="&#xf6;" horiz-adv-x="1223" d="M104 592q0 129 41.5 237.5t111.5 180.5q140 146 379 146t369 -180q112 -156 112 -420t-144.5 -418t-385.5 -154t-372 182q-111 157 -111 426zM274 590q0 -212 84 -349.5t247 -137.5t253 122t90 336q0 327 -182 436q-64 38 -147 38q-163 0 -254 -116.5t-91 -328.5z M287 1502q0 63 36 97t82 34q99 0 99 -105q0 -54 -34.5 -87t-79.5 -33t-74 27.5t-29 66.5zM739 1502q0 63 36 97t81 34q99 0 99 -105q0 -54 -34.5 -87t-79.5 -33t-73.5 27.5t-28.5 66.5z" />
<glyph unicode="&#xf7;" horiz-adv-x="1393" d="M232 709v130h929v-130h-929zM586 360q0 68 38 104.5t89.5 36.5t78 -31.5t26.5 -71.5q0 -66 -37 -101.5t-84.5 -35.5t-79 29t-31.5 70zM587 1157q0 69 38 105.5t89.5 36.5t78 -31.5t26.5 -71.5q0 -98 -78 -129q-23 -9 -57.5 -9t-65.5 29t-31 70z" />
<glyph unicode="&#xf8;" horiz-adv-x="1225" d="M102 539q0 183 41.5 291t111.5 180q142 146 368 146q67 0 128 -14l65 194l96 -28l-67 -198q211 -101 262 -378q14 -81 14 -127q0 -182 -41 -290.5t-110 -181.5q-141 -149 -368 -149q-68 0 -130 14l-65 -193l-96 27l66 198q-212 100 -261 383q-14 81 -14 126zM272 589 q0 -303 151 -423l287 855q-40 14 -107 14q-147 0 -239 -116.5t-92 -329.5zM512 117q44 -14 111 -14t130 31t107 90q91 122 91 334.5t-84 343.5q-28 43 -67 73z" />
<glyph unicode="&#xf9;" horiz-adv-x="1249" d="M183 471v669h166v-676q0 -209 49 -275.5t177.5 -66.5t261.5 70q36 19 60 37v911h167v-1152h-64q-66 0 -78 32q-6 13 -6 36v61q-190 -133 -429 -133q-80 0 -146 35.5t-101 99.5q-57 104 -57 352zM292 1678l120 103q90 -118 337 -398l-85 -68q-72 48 -192 162.5t-180 200.5 z" />
<glyph unicode="&#xfa;" horiz-adv-x="1249" d="M183 471v669h166v-676q0 -209 49 -275.5t177.5 -66.5t261.5 70q36 19 60 37v911h167v-1152h-64q-66 0 -78 32q-6 13 -6 36v61q-190 -133 -429 -133q-80 0 -146 35.5t-101 99.5q-57 104 -57 352zM521 1383q227 247 337 398l120 -103q-71 -104 -251 -266q-76 -69 -120 -97z " />
<glyph unicode="&#xfb;" horiz-adv-x="1249" d="M183 471v669h166v-676q0 -209 49 -275.5t177.5 -66.5t261.5 70q36 19 60 37v911h167v-1152h-64q-66 0 -78 32q-6 13 -6 36v61q-190 -133 -429 -133q-80 0 -146 35.5t-101 99.5q-57 104 -57 352zM272 1345l297 347h149l291 -346l-103 -44l-263 263l-274 -263z" />
<glyph unicode="&#xfc;" horiz-adv-x="1249" d="M183 471v669h166v-676q0 -209 49 -275.5t177.5 -66.5t261.5 70q36 19 60 37v911h167v-1152h-64q-66 0 -78 32q-6 13 -6 36v61q-190 -133 -429 -133q-80 0 -146 35.5t-101 99.5q-57 104 -57 352zM309 1502q0 63 36 97t82 34q99 0 99 -105q0 -54 -34.5 -87t-79.5 -33 t-74 27.5t-29 66.5zM761 1502q0 63 36 97t81 34q99 0 99 -105q0 -54 -34.5 -87t-79.5 -33t-73.5 27.5t-28.5 66.5z" />
<glyph unicode="&#xfd;" horiz-adv-x="1107" d="M56 1140h178l350 -1006l303 1006h180l-392 -1169q-105 -314 -237 -413q-87 -65 -228 -65q-71 0 -90 14v137q41 -12 91 -12q107 0 188.5 82.5t133.5 285.5h-49zM461 1383q227 247 337 398l120 -103q-71 -104 -251 -266q-76 -69 -120 -97z" />
<glyph unicode="&#xfe;" horiz-adv-x="1248" d="M188 -507v2168h167v-475l-7 -170q147 140 345.5 140t325 -141t126.5 -412t-159 -445q-75 -83 -181 -129t-220.5 -46t-239.5 27l10 -161v-356h-167zM355 155q65 -49 230 -49t277.5 126.5t112.5 349.5q0 443 -325 443q-127 0 -243 -77q-31 -20 -52 -39v-754z" />
<glyph unicode="&#xff;" horiz-adv-x="1107" d="M56 1140h178l350 -1006l303 1006h180l-392 -1169q-105 -314 -237 -413q-87 -65 -228 -65q-71 0 -90 14v137q41 -12 91 -12q107 0 188.5 82.5t133.5 285.5h-49zM248 1502q0 63 36 97t82 34q99 0 99 -105q0 -54 -34.5 -87t-79.5 -33t-74 27.5t-29 66.5zM700 1502 q0 63 36 97t81 34q99 0 99 -105q0 -54 -34.5 -87t-79.5 -33t-73.5 27.5t-28.5 66.5z" />
<glyph unicode="&#x152;" horiz-adv-x="2057" d="M109 743q0 381 201.5 588t520.5 207q150 0 262 -66v50h823v-131h-654v-539h485v-132h-485v-586h728v-134h-897v74q-137 -90 -304.5 -90t-291.5 56q-251 114 -345 410q-43 135 -43 293zM279 755q0 -274 135 -458.5t378 -184.5q179 0 301 106v1105q-111 86 -282 86 q-221 0 -366 -156q-166 -178 -166 -498z" />
<glyph unicode="&#x153;" horiz-adv-x="1979" d="M104 574q0 277 147 429.5t374 152.5q286 0 415 -236q136 236 430 236q179 0 289 -117.5t114 -310.5q0 -128 -8 -175h-748v-20q0 -222 112 -331q94 -91 262 -91q126 0 253 47q37 13 60 28l33 -97q-92 -73 -278 -97q-56 -8 -109 -8q-295 0 -421 231q-68 -113 -178.5 -172 t-248 -59t-232.5 50q-184 96 -241 326q-25 102 -25 214zM274 589.5q0 -211.5 84 -349t248 -137.5t256 122t92 336q0 327 -185 436q-65 38 -147 38q-163 0 -255.5 -117t-92.5 -328.5zM1124 665h592q1 20 1 58q0 123 -51 207q-66 107 -213 107q-206 0 -289 -203 q-29 -70 -40 -169z" />
<glyph unicode="&#x178;" horiz-adv-x="1249" d="M31 1522h181l374 -701l51 -115l44 115l359 701h179l-499 -935v-587h-172v584zM294 1786q0 66 36.5 101t84.5 35q104 0 104 -109q0 -86 -75 -115q-22 -8 -55.5 -8t-64 27.5t-30.5 68.5zM773 1786q0 65 37 100.5t84 35.5q105 0 105 -109q0 -86 -75 -115q-22 -8 -56 -8 t-64.5 27.5t-30.5 68.5z" />
<glyph unicode="&#x2c6;" horiz-adv-x="833" d="M48 1345l297 347h149l291 -346l-103 -44l-263 263l-274 -263z" />
<glyph unicode="&#x2dc;" horiz-adv-x="917" d="M48 1462q32 69 104 122.5t160.5 53.5t163.5 -74q49 -47 76.5 -60.5t58.5 -13.5q106 0 192 104l67 -56q-59 -118 -174 -160q-40 -15 -84.5 -15t-75.5 11t-55 27.5t-43 36t-50.5 47t-82.5 27.5q-100 0 -191 -104z" />
<glyph unicode="&#x2000;" horiz-adv-x="991" />
<glyph unicode="&#x2001;" horiz-adv-x="1982" />
<glyph unicode="&#x2002;" horiz-adv-x="991" />
<glyph unicode="&#x2003;" horiz-adv-x="1982" />
<glyph unicode="&#x2004;" horiz-adv-x="660" />
<glyph unicode="&#x2005;" horiz-adv-x="495" />
<glyph unicode="&#x2006;" horiz-adv-x="330" />
<glyph unicode="&#x2007;" horiz-adv-x="330" />
<glyph unicode="&#x2008;" horiz-adv-x="247" />
<glyph unicode="&#x2009;" horiz-adv-x="396" />
<glyph unicode="&#x200a;" horiz-adv-x="110" />
<glyph unicode="&#x2010;" horiz-adv-x="1350" d="M247 705v135h856v-135h-856z" />
<glyph unicode="&#x2011;" horiz-adv-x="1350" d="M247 705v135h856v-135h-856z" />
<glyph unicode="&#x2012;" horiz-adv-x="1350" d="M247 705v135h856v-135h-856z" />
<glyph unicode="&#x2013;" horiz-adv-x="1692" d="M240 705v135h1212v-135h-1212z" />
<glyph unicode="&#x2014;" horiz-adv-x="2343" d="M240 705v135h1863v-135h-1863z" />
<glyph unicode="&#x2018;" horiz-adv-x="498" d="M101 1287q0 168 66.5 283t143.5 167l72 -47v-25q-78 -63 -113 -221q-12 -52 -12 -98q0 -82 36 -151t86 -89v-47l-86 -96q-87 29 -140 125.5t-53 198.5z" />
<glyph unicode="&#x2019;" horiz-adv-x="498" d="M123 1010v25q68 68 99 222q11 51 11 97q0 86 -31 156t-76 92v47l108 88q72 -31 114 -112.5t42 -188.5q0 -180 -59.5 -298t-135.5 -175z" />
<glyph unicode="&#x201a;" horiz-adv-x="498" d="M123 -463q68 68 99 222q11 51 11 97q0 86 -31 156t-76 92v47l108 88q72 -31 114 -112.5t42 -188.5q0 -180 -59.5 -298t-135.5 -175l-72 47v25z" />
<glyph unicode="&#x201c;" horiz-adv-x="981" d="M101 1287q0 168 66.5 283t143.5 167l72 -47v-25q-78 -63 -113 -221q-12 -52 -12 -98q0 -82 36 -151t86 -89v-47l-86 -96q-87 29 -140 125.5t-53 198.5zM589 1287q0 168 66.5 283t143.5 167l72 -47v-25q-78 -63 -113 -221q-12 -52 -12 -98q0 -82 36 -151t86 -89v-47 l-86 -96q-87 29 -140 125.5t-53 198.5z" />
<glyph unicode="&#x201d;" horiz-adv-x="981" d="M123 1010v25q68 68 99 222q11 51 11 97q0 86 -31 156t-76 92v47l108 88q72 -31 114 -112.5t42 -188.5q0 -180 -59.5 -298t-135.5 -175zM611 1010v25q68 68 99 222q11 51 11 97q0 86 -31 156t-76 92v47l108 88q72 -31 114 -112.5t42 -188.5q0 -180 -59.5 -298t-135.5 -175 z" />
<glyph unicode="&#x201e;" horiz-adv-x="981" d="M123 -444q68 68 99 222q11 51 11 97q0 86 -31 156t-76 92v47l108 88q72 -31 114 -112.5t42 -188.5q0 -180 -59.5 -298t-135.5 -175l-72 47v25zM609 -444q68 68 99 222q11 51 11 97q0 86 -31 156t-76 92v47l108 88q72 -31 114 -112.5t42 -188.5q0 -180 -59.5 -298 t-135.5 -175l-72 47v25z" />
<glyph unicode="&#x2022;" horiz-adv-x="852" d="M254 721q0 73 55 127t124 54q70 0 116.5 -48.5t46.5 -123t-54 -128.5t-125 -54q-70 0 -116.5 50t-46.5 123z" />
<glyph unicode="&#x2026;" horiz-adv-x="1983" d="M214.5 107.5q-0.5 53.5 36.5 95t74 41.5q62 0 92 -35.5t30 -76.5q0 -68 -36 -108t-84 -40t-71 26q-41 44 -41.5 97.5zM875 107.5q-2 53.5 35.5 95t74.5 41.5q64 0 93 -35.5t29 -85.5v-18q0 -42 -35.5 -81.5t-83.5 -39.5t-71 26q-40 44 -42 97.5zM1536 93 q-2 68 35.5 109.5t75.5 41.5q62 0 91 -34t30 -76q2 -69 -34.5 -109.5t-84 -40.5t-79.5 34t-34 75z" />
<glyph unicode="&#x202f;" horiz-adv-x="396" />
<glyph unicode="&#x2039;" horiz-adv-x="1204" d="M245 542v141l653 448l44 -125l-534 -391l534 -388l-44 -121z" />
<glyph unicode="&#x203a;" horiz-adv-x="1204" d="M262 227l44 -121l653 436v141l-653 448l-44 -125l534 -391z" />
<glyph unicode="&#x205f;" horiz-adv-x="495" />
<glyph unicode="&#x20ac;" horiz-adv-x="1522" d="M119 527v110h194q-2 40 -2 108t12 154h-173v109h193q60 246 228.5 388t436.5 142q144 0 270 -44q33 -11 64 -19l-41 -134q-127 70 -332 70q-252 0 -383 -225q-44 -75 -68 -178h587v-109h-605q-7 -56 -7 -119t5 -143h574v-110h-562q71 -432 430 -432q224 0 385 92l46 -126 q-33 -5 -67 -19q-163 -70 -338 -70t-276 40q-302 117 -365 515h-206z" />
<glyph unicode="&#x2122;" horiz-adv-x="2218" d="M189 1428v118h685v-118l-276 2v-663h-140v663zM1033 767l37 779h221l188 -474l40 -139l33 138l177 475h208l67 -779h-136l-35 520l-9 169l-48 -136l-211 -558h-91l-285 695l-3 -152l-23 -538h-130z" />
<glyph unicode="&#x25fc;" horiz-adv-x="1140" d="M0 0v1140h1140v-1140h-1140z" />
</font>
</defs>
</svg>
