<?xml version="1.0" standalone="no"?>
<!DOCTYPE svg PUBLIC "-//W3C//DTD SVG 1.1//EN" "http://www.w3.org/Graphics/SVG/1.1/DTD/svg11.dtd" >
<svg xmlns="http://www.w3.org/2000/svg">
<metadata></metadata>
<defs>
<font id="merriweather_sansXBdIt" horiz-adv-x="0" >
<font-face units-per-em="2048" ascent="1638" descent="-410" />
<missing-glyph horiz-adv-x="485" />
<glyph unicode="&#xfb01;" horiz-adv-x="1429" d="M110 0l127 924h-122l41 216h111l19 105q26 188 157 305q133 120 333 120q116 0 179 -26l-62 -238q-48 48 -125 48q-49 0 -71 -22q-42 -41 -59 -133l-28 -159h189l-27 -216h-187l-113 -828l-9 -60q-2 -16 -5 -36h-348zM845 0l156 1140h359l-158 -1140h-357zM1043 1480.5 q0 37.5 16 75.5t43 66q60 59 151 59q78 0 129 -49q48 -46 48 -112q0 -142 -124 -191q-40 -16 -84 -16t-75 13q-62 26 -91 88q-13 29 -13 66.5z" />
<glyph unicode="&#xfb02;" horiz-adv-x="1430" d="M110 0l127 924h-122l41 216h111l19 105q26 188 157 305q133 120 333 120q116 0 179 -26l-62 -238q-48 48 -125 48q-49 0 -71 -22q-42 -41 -59 -133l-28 -159h189l-27 -216h-187l-113 -828l-9 -60q-2 -16 -5 -36h-348zM848 0l220 1634h359l-222 -1634h-357z" />
<glyph unicode="&#xfb03;" horiz-adv-x="2194" d="M110 0l127 924h-122l41 216h111l19 105q26 188 157 305q133 120 333 120q116 0 179 -26l-62 -238q-48 48 -125 48q-49 0 -71 -22q-42 -41 -59 -133l-28 -159h189l-27 -216h-187l-113 -828l-9 -60q-2 -16 -5 -36h-348zM875 0l127 924h-122l41 216h111l19 105 q26 188 157 305q133 120 333 120q116 0 179 -26l-62 -238q-48 48 -125 48q-49 0 -71 -22q-42 -41 -59 -133l-28 -159h189l-27 -216h-187l-113 -828l-9 -60q-2 -16 -5 -36h-348zM1610 0l156 1140h359l-158 -1140h-357zM1808 1480.5q0 37.5 16 75.5t43 66q60 59 151 59 q78 0 129 -49q48 -46 48 -112q0 -142 -124 -191q-40 -16 -84 -16t-75 13q-62 26 -91 88q-13 29 -13 66.5z" />
<glyph unicode="&#xfb04;" horiz-adv-x="2195" d="M110 0l127 924h-122l41 216h111l19 105q26 188 157 305q133 120 333 120q116 0 179 -26l-62 -238q-48 48 -125 48q-49 0 -71 -22q-42 -41 -59 -133l-28 -159h189l-27 -216h-187l-113 -828l-9 -60q-2 -16 -5 -36h-348zM875 0l127 924h-122l41 216h111l19 105 q26 188 157 305q133 120 333 120q116 0 179 -26l-62 -238q-48 48 -125 48q-49 0 -71 -22q-42 -41 -59 -133l-28 -159h189l-27 -216h-187l-113 -828l-9 -60q-2 -16 -5 -36h-348zM1613 0l220 1634h359l-222 -1634h-357z" />
<glyph />
<glyph horiz-adv-x="682" />
<glyph />
<glyph />
<glyph />
<glyph />
<glyph />
<glyph />
<glyph />
<glyph />
<glyph unicode="&#x9;" />
<glyph unicode="&#xa;" />
<glyph />
<glyph />
<glyph />
<glyph />
<glyph />
<glyph />
<glyph />
<glyph />
<glyph />
<glyph />
<glyph />
<glyph />
<glyph unicode=" "  horiz-adv-x="485" />
<glyph unicode="&#x09;" horiz-adv-x="485" />
<glyph unicode="&#xa0;" horiz-adv-x="485" />
<glyph unicode="!" horiz-adv-x="686" d="M95 110.5q0 54.5 14.5 93.5t41.5 68q60 66 152 66q124 0 153 -92q8 -27 8 -66.5t-15 -80t-43 -69.5q-58 -59 -143 -59t-126.5 42.5t-41.5 97zM201 488l136 1290h365l-243 -1290h-258z" />
<glyph unicode="&#x22;" horiz-adv-x="1133" d="M216 966l85 721h327l-184 -721h-228zM785 966l85 721h327l-184 -721h-228z" />
<glyph unicode="#" horiz-adv-x="1405" d="M108 321l20 228h186l50 301h-180l19 221h192l47 286h245l-45 -286h231l50 286h245l-48 -286h192l-19 -221h-204l-51 -301h187l-20 -228h-199l-54 -321h-240l48 321h-232l-59 -321h-242l55 321h-174zM560 549h232l50 301h-231z" />
<glyph unicode="$" horiz-adv-x="1204" d="M72 78l115 282q87 -65 205 -90q40 -9 78 -9q215 0 215 140q0 66 -32 110q-50 68 -128.5 126t-125.5 102t-85 98q-90 126 -90 265q0 161 104 275q105 113 286 152l45 264h240l-43 -251q164 -13 264 -81l-108 -281q-56 56 -194 80q-41 7 -78 7q-92 0 -139.5 -35.5 t-47.5 -80.5t11.5 -74t36 -58.5t62.5 -62.5l91 -74q124 -94 177 -160q111 -138 111 -277q0 -286 -234 -399q-76 -36 -173 -51l-49 -270h-240l48 265q-157 15 -275 64q-33 13 -47 24z" />
<glyph unicode="%" horiz-adv-x="2003" d="M102 1035q0 194 136 342q143 155 348 155q324 0 324 -344q0 -202 -130 -354q-140 -161 -353 -161q-158 0 -243 97q-82 94 -82 265zM337 1061.5q0 -85.5 35 -133.5t92 -48t94 29.5t60 72.5q47 84 47 169.5t-32 130.5t-87.5 45t-94 -28t-63.5 -69q-51 -83 -51 -168.5z M536 0l727 1530h249l-707 -1530h-269zM1173 421q0 194 137 342q142 155 347 155q324 0 324 -344q0 -202 -131 -354q-139 -161 -352 -161q-158 0 -243 97q-82 94 -82 265zM1408 420q0 -58 35 -106t92 -48t94 29.5t61 72.5q46 84 46 169.5t-32 130.5t-87.5 45t-94 -28 t-64 -69.5t-38 -89.5t-12.5 -106z" />
<glyph unicode="&#x26;" horiz-adv-x="1565" d="M5 361q0 199 209 343q61 42 128 80q-79 181 -79 324q0 189 127 310q134 128 367 128q221 0 324 -103q80 -80 80 -187.5t-35 -180.5t-93 -133q-92 -97 -281 -206q139 -222 295 -367q48 65 48 152q0 33 -5 70q-64 -6 -99 -30l10 224q35 45 149 45l447 -1l-20 -235h-156v-8 q0 -219 -146 -371q81 -28 186 -28q22 0 46 1l-40 -180q-64 -24 -223.5 -24t-278.5 49q-159 -49 -325 -49t-279.5 22t-192.5 68q-163 96 -163 287zM352 391q0 -139 173 -165q53 -8 95 -8q64 0 108 4q-117 117 -206 252l-56 89q-114 -88 -114 -172zM592 1159q0 -98 45 -214 q97 59 133 101q66 77 66 145.5t-27.5 101.5t-73.5 33t-69 -13.5t-40 -37.5q-34 -50 -34 -116z" />
<glyph unicode="'" horiz-adv-x="564" d="M216 966l85 721h327l-184 -721h-228z" />
<glyph unicode="(" horiz-adv-x="854" d="M130 540q0 441 183 782q137 256 339 408q52 39 93 61l179 -119q-177 -181 -276 -352q-199 -339 -199 -788.5t231 -776.5l-176 -106h-17q-122 100 -221 287q-136 259 -136 604z" />
<glyph unicode=")" horiz-adv-x="854" d="M-19 -244q177 181 276 352q199 339 199 788.5t-231 776.5l176 106h17q122 -100 221 -287q136 -259 136 -604q0 -441 -183 -782q-137 -256 -339 -408q-52 -39 -93 -61z" />
<glyph unicode="*" horiz-adv-x="1366" d="M153 969l327 126l129 55l-417 181l130 208l258 -203l98 -81l1 135l-8 331h238l-110 -466l121 81l292 205l97 -210l-327 -128l-129 -55l118 -53l299 -126l-150 -208l-239 203l-103 84l6 -138l12 -331l-244 1l77 330l28 138l-397 -289z" />
<glyph unicode="+" horiz-adv-x="1352" d="M182 654l35 263h249l117 -11l9 139l30 279h272l-26 -279l-25 -138l98 10h275l-35 -263h-274l-97 7l-6 -135l-34 -276h-273l33 276l25 135l-124 -7h-249z" />
<glyph unicode="," horiz-adv-x="526" d="M-32 -392l3 21q106 54 143 180q11 37 11 71.5t-7.5 63t-19.5 50.5q-24 44 -59 59l7 54l156 188q153 -59 191 -241q10 -47 10 -107.5t-23.5 -138t-67.5 -142.5q-93 -136 -251 -185z" />
<glyph unicode="-" horiz-adv-x="1266" d="M223 648l37 248h840l-37 -248h-840z" />
<glyph unicode="." horiz-adv-x="526" d="M30 110.5q0 54.5 14.5 93.5t41.5 68q60 66 152 66q124 0 152 -92q9 -27 9 -66.5t-15 -80t-43 -69.5q-58 -59 -143 -59t-126.5 42.5t-41.5 97z" />
<glyph unicode="/" horiz-adv-x="854" d="M-142 -362l861 1959h274l-863 -1959h-272z" />
<glyph unicode="0" horiz-adv-x="1278" d="M93 455q0 96 23.5 187.5t65.5 170t101 142t131 107.5q150 94 320 94q225 0 338 -134q103 -121 103 -331q0 -287 -181 -495q-116 -133 -281 -186q-83 -26 -187 -26t-188.5 39t-138.5 103.5t-80 148.5t-26 180zM427 511.5q0 -67.5 10 -108t29 -71.5q42 -65 113.5 -65 t120 35t80.5 90q61 107 61 258q0 224 -141 224h-28.5t-65 -17t-70 -47t-51.5 -69.5t-34 -82.5q-24 -79 -24 -146.5z" />
<glyph unicode="1" horiz-adv-x="1036" d="M182 960q149 34 326 144l90 58l240 -10l-170 -1152h-357l120 801q-64 -20 -120 -26.5t-89 -12.5z" />
<glyph unicode="2" horiz-adv-x="1289" d="M51 142q266 142 459 321q196 181 196 303q0 51 -31 79.5t-73.5 28.5t-81.5 -10.5t-80 -27.5q-88 -37 -144 -85l-119 189q124 132 332 194q74 22 169.5 22t176.5 -28t135 -74q105 -92 105 -234q0 -273 -323 -478q-93 -58 -190 -111l603 22l-45 -253h-1043z" />
<glyph unicode="3" horiz-adv-x="1168" d="M47 -314l33 247q74 -10 134 -10q425 0 425 247q0 101 -95 144q-35 15 -86 17l-187 -38l28 257q145 17 250 76q113 63 113 150q0 60 -35 89.5t-121 29.5q-131 0 -256 -100l-98 207q94 94 316 139q74 15 154 15q170 0 280 -72q121 -78 121 -219q0 -138 -95 -247 q-99 -114 -266 -163q162 -6 262 -97q94 -86 94 -201.5t-59.5 -205t-166.5 -151.5q-216 -126 -577 -126q-71 0 -168 12z" />
<glyph unicode="4" horiz-adv-x="1304" d="M1 164l141 274l284 546q69 137 129 272h297l82 -89l-510 -834l-79 -111l365 17l52 375l323 35l-47 -402l201 14l-37 -261h-200l-47 -375h-329l49 375h-596z" />
<glyph unicode="5" horiz-adv-x="1176" d="M34 -349l37 232q35 -6 81.5 -6t103 6.5t113.5 22t109.5 40t93.5 60.5q89 80 89 195q0 83 -31 116q-56 60 -169 60q-131 0 -226 -53l-126 135l154 681h587l22 16h208l-82 -291h-468l-78 -295q82 35 189.5 35t177 -19.5t121.5 -62.5q112 -93 112 -282q0 -284 -252 -449 q-241 -158 -636 -158q-79 0 -130 17z" />
<glyph unicode="6" horiz-adv-x="1293" d="M111 519q0 117 30 238.5t86 234.5t136.5 213.5t180.5 182.5q209 172 472 237l79 -211q-264 -89 -459 -318q-69 -80 -83 -126q74 48 214 63q38 4 67 4q176 0 274 -131q88 -118 88 -299q0 -249 -135 -421q-158 -202 -460 -202q-248 0 -375 153q-115 138 -115 382z M439 528.5q0 -76.5 15.5 -133.5t41.5 -95.5t61 -58t87 -19.5t96 36t71 89q50 98 50 227q0 162 -110 204q-32 13 -68 13q-103 0 -179 -53q-20 -15 -30 -28q-35 -105 -35 -181.5z" />
<glyph unicode="7" horiz-adv-x="1136" d="M76 867l64 273h952l49 -66l-625 -1423l-298 107l511 1109h-653z" />
<glyph unicode="8" horiz-adv-x="1390" d="M126 350q0 239 233 362q67 36 138 58q-176 166 -176 341q0 203 139 321q138 117 367 117q202 0 331 -93q131 -95 131 -246q0 -229 -209 -342q-61 -32 -125 -55q118 -92 167 -160q92 -130 92 -240t-43.5 -188.5t-120.5 -132.5q-159 -112 -412 -112q-225 0 -366 97 q-146 100 -146 273zM461 398q0 -84 69 -145q64 -57 149 -57t133.5 48.5t48.5 129.5q0 101 -149 220l-89 71q-162 -103 -162 -267zM649 1140q0 -80 105 -170q32 -28 68 -56q157 103 157 266q0 74 -53 119q-48 41 -101.5 41t-84 -15t-50.5 -41q-41 -55 -41 -144z" />
<glyph unicode="9" horiz-adv-x="1293" d="M101 533q0 249 135 421q158 202 460 202q248 0 375 -153q115 -138 115 -376q0 -245 -116 -479q-114 -229 -318 -396q-212 -175 -471 -237l-79 211q262 85 460 312q68 78 82 122q-106 -57 -225 -57t-192 35.5t-123 95.5q-103 122 -103 299zM436 566q0 -109 54 -166 q46 -51 124 -51q102 0 178 47q21 12 31 24q35 110 35 189t-15.5 136t-42.5 95q-53 78 -126 78t-117 -36t-71 -89q-50 -98 -50 -227z" />
<glyph unicode=":" horiz-adv-x="526" d="M10 110.5q0 54.5 14.5 93.5t41.5 68q60 66 152 66q124 0 152 -92q9 -27 9 -66.5t-15 -80t-43 -69.5q-58 -59 -143 -59t-126.5 42.5t-41.5 97zM102 919.5q0 54.5 14.5 93.5t41.5 68q60 66 152 66q124 0 152 -92q9 -27 9 -66.5t-15 -80t-43 -69.5q-58 -59 -143 -59 t-126.5 42.5t-41.5 97z" />
<glyph unicode=";" horiz-adv-x="526" d="M-32 -392l3 21q106 54 143 180q11 37 11 71.5t-7.5 63t-19.5 50.5q-24 44 -59 59l7 54l156 188q153 -59 191 -241q10 -47 10 -107.5t-23.5 -138t-67.5 -142.5q-93 -136 -251 -185zM105 919.5q0 54.5 14.5 93.5t41.5 68q60 66 152 66q124 0 152 -92q9 -27 9 -66.5t-15 -80 t-43 -69.5q-58 -59 -143 -59t-126.5 42.5t-41.5 97z" />
<glyph unicode="&#x3c;" horiz-adv-x="1395" d="M199 700l16 130l1029 520l-37 -311l-622 -286l548 -290l-26 -283z" />
<glyph unicode="=" horiz-adv-x="1085" d="M106 315l37 248h840l-37 -248h-840zM161 808l37 248h840l-37 -248h-840z" />
<glyph unicode="&#x3e;" horiz-adv-x="1395" d="M255 183l37 311l622 286l-548 290l26 283l908 -520l-16 -130z" />
<glyph unicode="?" horiz-adv-x="1060" d="M225 712q0 40 10.5 77.5t38.5 72.5q53 68 203 143q209 94 261 178q3 7 6 21l8 31q9 38 9 77.5t-21 77t-60 66.5q-87 62 -223 62q-118 0 -207 -23l56 230q42 35 152 49q33 4 63 4q279 0 427 -124q134 -112 134 -307q0 -235 -187 -371q-53 -38 -109 -69l-108 -59 q-118 -61 -162 -119q-25 -34 -25 -65.5t5.5 -49t12.5 -33.5l13 -29q7 -14 10 -23l-167 -66l-17 1q-76 52 -112 172q-11 36 -11 76zM327 110.5q0 54.5 14.5 93.5t41.5 68q60 66 152 66q124 0 153 -92q8 -27 8 -66.5t-15 -80t-43 -69.5q-58 -59 -143 -59t-126.5 42.5t-41.5 97 z" />
<glyph unicode="@" horiz-adv-x="2028" d="M102 374q0 352 152 625q146 260 403 403q256 143 569 143q339 0 540 -173q201 -171 201 -463q0 -269 -101 -487q-91 -193 -244 -305q-145 -106 -294 -106q-60 0 -90 43.5t-30 110.5q0 70 5 127l7 79q-110 -259 -261 -337q-52 -27 -105 -27t-108 27q-121 58 -176 216 q-26 78 -26 180q0 267 148 468q99 134 252 187q77 27 134 27t86 -3t60 -9q74 -16 110 -42l195 30q-39 -149 -79 -578l-10 -110q-7 -65 -11 -90q-6 -37 -6 -62t13 -25q109 0 194 205q82 198 82 432q0 488 -537 488q-246 0 -443 -139q-182 -129 -285 -345q-101 -212 -101 -446 q0 -434 313 -578q131 -61 318 -61t329 68l59 -171q-109 -81 -301 -108q-61 -8 -125 -8q-372 0 -601 213q-236 221 -236 601zM840 484q0 -138 42 -174q17 -14 42 -14t53 29t56.5 75.5t56 105.5t49.5 120q49 135 59 214q-39 43 -111.5 43t-116 -40t-72.5 -100 q-58 -120 -58 -259z" />
<glyph unicode="A" horiz-adv-x="1345" d="M-123 -1l740 1531h450l227 -1530l-355 -1l-33 287h-522l-117 -286zM482 527h397l-76 675l-6 119l-39 -119z" />
<glyph unicode="B" horiz-adv-x="1352" d="M72 0l219 1530h187q72 2 151 8.5t157 6.5q508 0 508 -347q0 -237 -169 -342q-57 -36 -133 -52q136 -28 208 -110.5t72 -203.5q0 -506 -740 -506l-305 16h-155zM460 240q42 -7 117 -7t132.5 9.5t98.5 35.5q88 56 88 196q0 111 -64 154q-59 41 -204 41q-73 0 -107 -4z M556 907q45 -3 90 -3q138 0 210.5 60t72.5 194q0 119 -122 136q-38 6 -79 6q-82 0 -117 -3z" />
<glyph unicode="C" horiz-adv-x="1192" d="M83 599q0 150 26.5 266.5t77 219t122 187.5t161.5 146q190 128 425 128q166 0 299 -56l53 -14l-102 -335q-122 106 -287 106q-274 0 -373 -326q-41 -135 -41 -260.5t15 -192t48 -110.5q65 -87 212 -87q136 0 256 60q32 16 52 30l46 -249q-95 -71 -293 -112 q-74 -16 -166.5 -16t-173.5 25.5t-141 70t-101.5 105.5t-67.5 132q-47 132 -47 282z" />
<glyph unicode="D" horiz-adv-x="1423" d="M72 0l219 1530h156l387 16q581 0 581 -614q0 -397 -208 -660q-144 -181 -377 -252q-118 -36 -261 -36q-46 0 -121 5q-165 11 -232 11h-144zM464 264q63 -21 164.5 -21t182.5 55.5t135 149.5q105 187 105 489q0 201 -71 278q-63 70 -219 70q-88 0 -153 -13z" />
<glyph unicode="E" horiz-adv-x="1204" d="M72 0l219 1530h914l-37 -275l-562 2l-48 -337l419 5l-36 -276l-421 9l-55 -388l633 10l-37 -280h-989z" />
<glyph unicode="F" horiz-adv-x="1080" d="M72 0l219 1530h857l-42 -275l-500 4l-53 -372l428 6l-36 -291l-432 7l-87 -609h-354z" />
<glyph unicode="G" horiz-adv-x="1427" d="M74 630q0 187 63 360t173 296.5t257.5 191.5t316.5 68q201 0 369 -56l95 -33l-74 -322q-100 72 -264 108q-64 14 -140.5 14t-142 -27t-114.5 -73t-83 -108t-56 -132q-41 -135 -41 -294q0 -374 297 -374q126 0 199 33l45 288h-248l33 280h576l-107 -771q-41 -4 -95 -19 l-102 -28q-177 -48 -322.5 -48t-234.5 25.5t-156 69.5t-113.5 104t-75.5 129q-55 131 -55 318z" />
<glyph unicode="H" horiz-adv-x="1500" d="M60 0l219 1530h354l-95 -664h482l95 664h358l-219 -1530h-358l89 622h-482l-89 -622h-354z" />
<glyph unicode="I" horiz-adv-x="706" d="M98 0l219 1530h354l-219 -1530h-354z" />
<glyph unicode="J" horiz-adv-x="697" d="M-180 -239q120 30 198 129q63 83 90 220q15 74 34 189t37 239t35 254l97 738h356l-171 -1186q-35 -230 -46 -269q-59 -236 -236 -344q-144 -88 -350 -88z" />
<glyph unicode="K" horiz-adv-x="1337" d="M72 0l219 1530h354l-95 -662l526 662h404l-607 -673q314 -618 359.5 -701.5t91.5 -156.5l-417 2q-6 9 -19 37l-121 268l-126 292l-154 -171l-61 -427h-354z" />
<glyph unicode="L" horiz-adv-x="1068" d="M72 0l219 1530h354l-180 -1253l497 11l-42 -288h-848z" />
<glyph unicode="M" horiz-adv-x="1988" d="M-31 0l419 1530h515l68 -1053l6 -225l48 225l355 1053h517l-24 -1530h-353l89 1139l27 234l-74 -234l-437 -1142l-389 -15l-120 1157l-2 234l-48 -234l-248 -1139h-349z" />
<glyph unicode="N" horiz-adv-x="1500" d="M72 0l219 1530h307l356 -792l79 -260l13 260l97 792h342l-219 -1530h-297l-348 833l-99 275l3 -275l-115 -833h-338z" />
<glyph unicode="O" horiz-adv-x="1394" d="M66 582q0 126 23 248.5t67.5 230.5t110 197t149.5 153q176 135 405 135q259 0 407 -178q136 -164 136 -422q0 -404 -198 -676q-133 -182 -331 -251q-101 -35 -228 -35t-230.5 47t-172.5 128t-103.5 189t-34.5 234zM430 584.5q0 -87.5 14 -154t41.5 -106.5t67.5 -57 t94.5 -17t102.5 29t87 78.5t69.5 116.5t51.5 144q42 152 42 284t-14 198.5t-42 106.5q-50 73 -161 73q-105 0 -191 -110q-116 -149 -152 -418q-10 -80 -10 -167.5z" />
<glyph unicode="P" horiz-adv-x="1298" d="M72 0l218 1530h156q59 0 144 8t185 8q258 0 397.5 -109.5t140.5 -329.5q0 -268 -169 -438q-180 -182 -487 -182l-99 1l-62 1l-70 -489h-354zM534 764q43 -12 129 -12q282 0 301 324q1 12 1 37.5t-10 62.5t-39 66q-61 58 -205 58q-45 0 -100 -10z" />
<glyph unicode="Q" horiz-adv-x="1395" d="M66 578q0 408 200 680q135 183 335 252q102 36 229 36t228.5 -48t169.5 -130q136 -164 136 -422q0 -374 -172 -638q-83 -128 -203.5 -212t-273.5 -105q-1 -11 -1 -30t12 -41.5t43 -37.5q50 -23 223 -23t265 26v-203q-68 -65 -279 -94q-58 -8 -111 -8t-111 8t-108 26 q-177 65 -177 240q0 61 26 141q-208 37 -323 203q-108 155 -108 380zM430 584.5q0 -87.5 14 -154t41.5 -106.5t67.5 -57t94.5 -17t102.5 29t87 78.5t69.5 116.5t51.5 144q42 152 42 284t-14 198.5t-42 106.5q-50 73 -161 73q-105 0 -191 -110q-116 -149 -152 -418 q-10 -80 -10 -167.5z" />
<glyph unicode="R" horiz-adv-x="1344" d="M72 0l218 1530h202q57 0 114 6q109 10 217 10t212 -26.5t169 -76.5q125 -95 125 -290q0 -289 -175 -433q-63 -52 -152 -79q87 -72 141 -274l52 -160q50 -155 87 -207h-392q-15 21 -29 78l-58 228q-45 187 -107 250q-16 17 -28 17h-157l-85 -573h-354zM548 848 q20 -1 47 -2h55q28 -1 52 -1h41q130 0 193 101q48 75 48 182q0 140 -138 164q-43 8 -80 8t-56.5 -1t-37.5 -3q-47 -3 -62 -6z" />
<glyph unicode="S" horiz-adv-x="1058" d="M-5 80l120 288q86 -64 213 -92q42 -9 89.5 -9t86 12t62.5 33q44 37 46 108v7q0 59 -30 97q-46 59 -125 118.5t-124.5 103.5t-82.5 97q-82 120 -82 235.5t38 200t108 143.5q145 124 388 124q180 0 307 -56q34 -15 54 -29l-112 -281q-57 57 -183 80q-38 7 -81 7t-78 -11.5 t-58 -30.5q-45 -37 -45 -85t14 -78.5t39.5 -60.5t60.5 -59l77 -63q125 -99 174 -162q103 -130 103 -253t-42.5 -211.5t-119.5 -148.5q-152 -120 -421 -120q-170 0 -337 66q-42 16 -59 30z" />
<glyph unicode="T" horiz-adv-x="1153" d="M136 1255l44 275h1067l-40 -275l-352 11l-181 -1266h-360l181 1266z" />
<glyph unicode="U" horiz-adv-x="1440" d="M114 432v28q0 52 13 137l133 933h353l-126 -888q-11 -76 -11 -162t11 -123.5t34 -60.5q44 -41 129 -41t131 17.5t80 61.5q65 82 98 300l127 896h352l-130 -933q-46 -329 -208 -473q-159 -140 -480 -140q-381 0 -476 262q-30 82 -30 186z" />
<glyph unicode="V" horiz-adv-x="1233" d="M103 1530h354l118 -980l17 -262l77 262l356 980h375l-660 -1530h-412z" />
<glyph unicode="W" horiz-adv-x="1803" d="M97 1530h357l59 -980l20 -222l68 222l257 641l-36 339h345l60 -980l23 -222l53 222l334 980h364l-595 -1530h-413l-75 713l-261 -713h-375z" />
<glyph unicode="X" horiz-adv-x="1244" d="M-99 0l563 808l-321 722h380l177 -493l317 493h386l-544 -795l347 -735l-386 -1l-201 531l-322 -530h-396z" />
<glyph unicode="Y" horiz-adv-x="1164" d="M83 1530h372l141 -525l25 -134l58 134l284 525h393l-600 -940l-85 -590h-354l85 590z" />
<glyph unicode="Z" horiz-adv-x="1158" d="M-68 89l774 1099l93 67l-587 -10l46 285h976l23 -86l-742 -1088l-84 -74l618 10l-47 -292h-1043z" />
<glyph unicode="[" horiz-adv-x="854" d="M130 -77q0 62 8 110l208 1480q31 220 154 271q43 18 98 18q115 0 334 -47l-26 -175h-255l-214 -1610h255l-22 -173l-70 -20q-127 -36 -273 -36q-95 0 -146 49.5t-51 132.5z" />
<glyph unicode="\" horiz-adv-x="854" d="M6 1597h268l577 -1959h-269z" />
<glyph unicode="]" horiz-adv-x="854" d="M-16 -199l26 175h255l214 1610h-255l22 173l70 20q127 36 273 36q95 0 146 -49.5t51 -132.5q0 -62 -8 -110l-208 -1480q-31 -220 -154 -271q-43 -18 -98 -18q-115 0 -334 47z" />
<glyph unicode="^" horiz-adv-x="1364" d="M126 510l531 1021h267l267 -1021h-271l-161 650l-358 -650h-275z" />
<glyph unicode="_" horiz-adv-x="1335" d="M-111 -388l20 201h1378l-20 -201h-1378z" />
<glyph unicode="`" horiz-adv-x="546" d="M-11 1574l209 200l334 -449l-124 -99q-81 30 -242 166q-147 126 -177 182z" />
<glyph unicode="a" horiz-adv-x="1268" d="M70 412q0 300 176 510q195 234 528 234q118 0 247 -45l184 45l-161 -1156h-320l11 248q-81 -177 -215 -240q-52 -24 -130.5 -24t-142.5 34.5t-103 93.5q-74 108 -74 300zM442 433q0 -209 89 -209q67 0 145 138q63 112 100 244l47 335q-28 5 -77 5t-92 -21.5t-77 -58 t-59.5 -86.5t-41.5 -107q-34 -116 -34 -240z" />
<glyph unicode="b" horiz-adv-x="1290" d="M76 0l225 1634h343l-85 -658l-21 -121q73 196 221 272q56 29 137.5 29t146 -35t103.5 -95q74 -110 74 -302q0 -298 -176 -508q-194 -232 -530 -232q-121 0 -253 48v2zM460 199q32 -5 82 -5t93 21t77 57.5t59 85.5t41 106q34 114 34 239q0 209 -88 209q-97 0 -199 -246 q-35 -85 -55 -167l1 56z" />
<glyph unicode="c" horiz-adv-x="956" d="M74 480q0 119 46.5 250.5t129.5 225.5q175 200 445 200q159 0 258 -43l-86 -342q-58 58 -114 82.5t-93 24.5t-79 -22.5t-73 -69.5q-70 -104 -70 -288q0 -135 23.5 -180.5t52 -61t65 -15.5t71.5 11t67 28q68 38 102 76l89 -171q-85 -130 -266 -181q-68 -20 -169 -20 t-180 41t-128 106.5t-70 147.5t-21 201z" />
<glyph unicode="d" horiz-adv-x="1274" d="M70 412q0 300 176 510q195 234 527 234q39 0 80 -6l67 484h344l-211 -1634h-319l14 279q-77 -194 -220 -267q-55 -28 -136 -28t-145 34.5t-103 93.5q-74 108 -74 300zM442 433q0 -205 89 -205q113 0 224 314q15 43 25 78l44 317q-33 9 -80 9t-90 -21.5t-77 -58 t-59.5 -86.5t-41.5 -107q-34 -116 -34 -240z" />
<glyph unicode="e" horiz-adv-x="1112" d="M73 476q0 122 50 253t137 226q184 201 456 201q257 0 320 -154q20 -49 20 -135t-48 -168t-130 -141q-145 -104 -429 -175q0 -79 22 -107q39 -50 123 -50q88 0 191 58q91 50 132 105l92 -171q-56 -82 -177 -149q-152 -85 -326 -85q-218 0 -332 140q-101 123 -101 352z M444 561q96 7 178 91q90 92 90 207q0 53 -17.5 77t-53.5 24t-62.5 -20t-47.5 -52.5t-37 -74.5t-27 -87q-21 -83 -23 -165z" />
<glyph unicode="f" horiz-adv-x="765" d="M110 0l127 924h-122l41 216h111l19 105q26 188 157 305q133 120 333 120q116 0 179 -26l-62 -238q-48 48 -125 48q-49 0 -71 -22q-42 -41 -59 -133l-28 -159h189l-27 -216h-187l-113 -828l-9 -60q-2 -16 -5 -36h-348z" />
<glyph unicode="g" horiz-adv-x="1269" d="M70 412q0 300 176 510q195 234 527 234q118 0 247 -45l188 45l-164 -1185q-46 -346 -368 -449q-124 -39 -282 -39q-111 0 -183.5 19t-87.5 26l52 255q20 -20 83 -44q123 -47 190 -47t104 15.5t62 43.5q42 47 62 152l63 353q-52 -115 -108 -169q-110 -103 -215 -103 t-169 34.5t-103 93.5q-74 108 -74 300zM442 433q0 -205 89 -205q87 0 186 218q37 82 59 161l46 334q-28 5 -76.5 5t-91.5 -21.5t-77 -58t-59.5 -86.5t-41.5 -107q-34 -116 -34 -240z" />
<glyph unicode="h" horiz-adv-x="1314" d="M78 0l220 1634h348l-75 -562l-29 -151q104 169 264 219q54 16 115.5 16t113 -15.5t87.5 -51.5q74 -74 74 -235q0 -50 -16 -167l-24 -176q-9 -69 -20 -140q-45 -319 -52 -371h-357q44 304 53 374l17 136q28 227 28 291q0 86 -81 86q-87 0 -176 -111q-27 -35 -49 -78 l-94 -698h-347z" />
<glyph unicode="i" horiz-adv-x="664" d="M80 0l156 1140h359l-158 -1140h-357zM283 1480.5q0 37.5 16 75.5t43 66q60 59 151 59q78 0 129 -49q48 -46 48 -112q0 -142 -124 -191q-40 -16 -84 -16t-75 13q-62 26 -91 88q-13 29 -13 66.5z" />
<glyph unicode="j" horiz-adv-x="665" d="M-273 -494l88 181q13 -9 59 -9t87.5 32t65.5 85q35 75 63 270l147 1075h359l-158 -1140q-35 -252 -189 -394q-145 -134 -342 -134q-134 0 -180 34zM285 1480.5q0 37.5 16 75.5t43 66q60 59 151 59q78 0 129 -49q48 -46 48 -112q0 -142 -124 -191q-40 -16 -84 -16t-75 13 q-62 26 -91 88q-13 29 -13 66.5z" />
<glyph unicode="k" horiz-adv-x="1226" d="M78 0l220 1634h349l-221 -1634h-348zM543 630h3l-3 1q132 74 214 231q26 49 48 98q42 96 63 180h353q-6 -145 -103 -288q-100 -151 -243 -230l324 -622h-408z" />
<glyph unicode="l" horiz-adv-x="665" d="M83 0l220 1634h359l-222 -1634h-357z" />
<glyph unicode="m" horiz-adv-x="1965" d="M76 0l156 1140h344l-15 -204q148 220 380 220t261 -230q150 230 382 230q268 0 268 -302q0 -49 -16 -167q-50 -366 -61 -444q-26 -178 -35 -243h-356l52 376q9 69 18 146l18 146q10 92 10 133q0 86 -81 86q-53 0 -109 -46.5t-99 -124.5q-5 -44 -12 -96l-15 -109 q-9 -69 -20 -140q-45 -319 -52 -371h-357q44 304 53 374l17 136q28 227 28 291q0 86 -81 86q-85 0 -174 -107q-27 -34 -49 -75l-98 -705h-357z" />
<glyph unicode="n" horiz-adv-x="1319" d="M76 0l156 1140h341l-13 -206q144 222 369 222q277 0 277 -302q0 -50 -16 -167l-24 -176q-9 -69 -20 -140q-45 -319 -52 -371h-357q44 304 53 374l17 136q28 227 28 291q0 86 -81 86q-87 0 -176 -111q-27 -35 -49 -78l-96 -698h-357z" />
<glyph unicode="o" horiz-adv-x="1181" d="M65 466q0 94 18 180t53.5 162.5t88.5 140t123 109.5q148 98 353 98q210 0 319 -144q96 -128 96 -341q0 -289 -159 -479q-173 -208 -476 -208q-211 0 -320 144q-96 128 -96 338zM419 429q0 -231 110 -231q151 0 207 271q22 110 22 236q0 237 -110 237q-147 0 -206 -280 q-23 -109 -23 -233z" />
<glyph unicode="p" horiz-adv-x="1285" d="M8 -492l223 1632h327l-3 -234q78 167 213 228q50 22 127.5 22t142 -34t104.5 -92q73 -108 73 -299q0 -300 -176 -512q-195 -235 -527 -235q-41 0 -84 6l-68 -482h-352zM458 199q30 -5 80 -5t92.5 21.5t76.5 58.5t59.5 87.5t41.5 107.5q34 116 34 241q0 202 -88 202 q-94 0 -194 -231q-37 -85 -57 -164z" />
<glyph unicode="q" horiz-adv-x="1278" d="M70 412q0 300 176 510q195 234 532 234q122 0 249 -46l180 46l-220 -1648h-350l65 492l45 276q-81 -195 -219 -264q-55 -28 -136 -28t-145 34.5t-103 93.5q-74 108 -74 300zM442 433q0 -205 89 -205q106 0 215 288q15 41 26 77l47 349q-34 4 -78 4t-87 -21.5t-77 -58 t-59.5 -86.5t-41.5 -107q-34 -116 -34 -240z" />
<glyph unicode="r" horiz-adv-x="905" d="M78 0l156 1140h344l-16 -228l-1 -8l1 1q34 101 110 173q82 78 181 78q49 0 71 -14l-63 -361q-19 26 -100 26q-120 0 -223 -88l-3 3l-100 -722h-357z" />
<glyph unicode="s" horiz-adv-x="977" d="M56 53l56 280q57 -53 195 -89q40 -11 72 -11q145 0 145 83q0 57 -136 153q-175 123 -212 256q-13 44 -13 110t33 127.5t94 104.5q125 89 336 89q165 0 267 -37l-38 -299q-55 55 -163 80q-37 9 -88 9t-80.5 -23.5t-29.5 -52.5t11 -48.5t32 -39t52 -43.5t76 -60.5t83 -71 t63 -70.5q50 -74 50 -171t-40.5 -163.5t-106.5 -107.5q-123 -74 -327 -74q-155 0 -282 46q-35 12 -49 23z" />
<glyph unicode="t" horiz-adv-x="839" d="M125 195q0 19 5 61l8 76q3 34 8 66l72 526h-84l36 216h105l98 276h267l-37 -276h222l-23 -216h-227l-80 -582q-4 -30 -4 -54q0 -64 70 -64q55 0 135 52q23 15 40 30l54 -170q-195 -156 -430 -156q-108 0 -171.5 56t-63.5 159z" />
<glyph unicode="u" horiz-adv-x="1292" d="M122 216q0 8 -1 16q0 45 3 81q3 43 8 90q9 81 25 191l75 546h353l-70 -551l-10 -74q-17 -129 -17 -181t21 -76t48 -24q76 0 162 114q25 33 46 69l101 723h357l-156 -1140h-318l6 194q-92 -145 -241 -196q-53 -18 -110 -18t-107 12.5t-89 42.5t-62.5 78.5t-23.5 102.5z " />
<glyph unicode="v" horiz-adv-x="1138" d="M93 1140h351l62 -665l14 -199l49 65q133 214 171 476q27 169 27 323h329q11 -77 11 -184.5t-44.5 -241t-120.5 -258.5q-151 -248 -394 -448l-20 -17l-278 -12l-55 376z" />
<glyph unicode="w" horiz-adv-x="1763" d="M92 1140h361l59 -665l13 -209l59 76q147 226 191 468l-34 330h343l48 -665l13 -209l59 76q144 227 180 539q18 152 18 259h318q11 -66 11 -179t-40.5 -241t-114.5 -250q-143 -233 -418 -462l-20 -17l-259 -12l-54 360q-107 -175 -280 -331l-20 -17l-275 -12l-55 376z" />
<glyph unicode="x" horiz-adv-x="1053" d="M-105 0l451 601l-300 539h408l128 -315l195 315h356l-423 -581l323 -559h-408l-147 332l-215 -332h-368z" />
<glyph unicode="y" horiz-adv-x="1140" d="M-92 -442l89 244q86 -61 174 -61q84 0 149 53q61 49 151 186h-206l-170 1160h352l107 -1003q62 127 101.5 247.5t55.5 174.5t27 113q19 103 27.5 226.5t8.5 163.5v78h320q6 -30 6 -136t-11.5 -191.5t-32.5 -168.5q-105 -423 -374 -792l-104 -142q-104 -145 -234 -198 q-72 -29 -144.5 -29t-110 7t-70.5 18q-55 17 -111 50z" />
<glyph unicode="z" horiz-adv-x="984" d="M-45 45l554 790l52 38h-428l37 267h822l35 -44l-545 -793l-44 -31h457l-28 -272h-877z" />
<glyph unicode="{" horiz-adv-x="1024" d="M51 681l32 203q49 12 101 23.5t84 28.5q64 33 72 76l88 538q24 148 88 206q63 56 197 56q106 0 330 -57l-31 -176h-276l-94 -619q-6 -41 -27 -65t-46.5 -40t-58.5 -28l-69 -25q-42 -15 -92 -31q22 -12 51 -25l56 -25q63 -30 79 -46l24 -25q28 -31 21 -88l-92 -592h275 q-2 -6 -5 -32q-6 -57 -17 -133q-192 -77 -365 -77q-156 0 -186 106q-9 33 -9 56t4 54q16 123 24 179l59 423q0 42 -42 70.5t-86 41t-89 23.5z" />
<glyph unicode="|" horiz-adv-x="854" d="M320 -186v1966h253v-1966h-253z" />
<glyph unicode="}" horiz-adv-x="1024" d="M30 -209l31 176h276l94 619q6 41 27 65t46.5 40t58.5 28l69 25q42 15 92 31q-22 12 -51 25l-56 25q-63 30 -79 46l-24 25q-28 31 -21 88l92 592h-275q2 6 5 32q6 57 17 133q192 77 365 77q156 0 186 -106q9 -33 9 -56t-4 -54q-16 -123 -24 -179l-59 -423q0 -42 42 -70.5 t86 -41t89 -23.5l-32 -203q-49 -12 -101 -23.5t-84 -28.5q-64 -33 -72 -76l-88 -538q-24 -148 -88 -206q-63 -56 -197 -56q-106 0 -330 57z" />
<glyph unicode="~" horiz-adv-x="1137" d="M76 886q25 79 128 148q106 72 214 72t225 -86l59 -42q65 -44 118 -44q105 0 182 107l134 -139q-23 -87 -122 -158q-103 -72 -210 -72q-117 0 -223 91t-188.5 91t-168.5 -109z" />
<glyph />
<glyph unicode="&#xa1;" horiz-adv-x="686" d="M18 -434l243 1290h258l-136 -1290h-365zM256 1164.5q0 39.5 15 80t43 69.5q58 59 143 59t126.5 -42.5t41.5 -97t-14.5 -93.5t-41.5 -68q-60 -66 -152 -66q-124 0 -153 92q-8 27 -8 66.5z" />
<glyph unicode="&#xa2;" horiz-adv-x="1077" d="M91 435.5q0 140.5 34 256t96 206.5q128 187 340 239l66 291h240l-64 -278q111 -12 167 -37l-86 -342q-58 58 -114 82.5t-93 24.5t-79 -22.5t-74 -69.5q-69 -104 -69 -288q0 -135 23.5 -180.5t52 -61t65 -15.5t71.5 11t67 28q68 38 102 76l89 -171q-76 -113 -219 -167 q-55 -21 -124 -29l-48 -264h-240l52 285q-129 46 -198 176q-57 109 -57 249.5z" />
<glyph unicode="&#xa3;" horiz-adv-x="1426" d="M-62 112q0 51 25.5 87.5t65.5 62.5q85 55 183 55q52 67 69 164l41 238h-169l30 232h179l26 149q52 298 311 406q94 39 208 39t185.5 -14.5t120.5 -34.5q65 -26 122 -70l-172 -256q-13 39 -55 73q-86 70 -168 70q-136 0 -188 -125q-18 -46 -29 -113l-21 -124h306l-30 -232 h-314l-28 -173q-17 -102 -48 -166.5t-57 -92.5q76 -28 179 -40t141 -12q129 0 194.5 40t65.5 105q0 54 -53 102q-12 12 -19 16l209 169q75 -35 123 -125q46 -84 46 -165q0 -307 -299 -379q-77 -18 -180.5 -18t-190 14t-161.5 32l-144 36q-67 17 -129 23q-60 -72 -159 -97 q-30 -8 -64 -8t-64.5 12t-49.5 32q-38 37 -38 88z" />
<glyph unicode="&#xa4;" horiz-adv-x="1540" d="M201 1135l141 142l211 -213q109 64 233.5 64t234.5 -70l207 206l141 -142l-209 -209q62 -105 62 -227t-66 -227l211 -211l-142 -141l-211 210q-107 -65 -229.5 -65t-227.5 61l-211 -211l-142 141l208 208q-70 110 -70 239q0 127 68 235zM576 690q0 -89 60 -152 q60 -64 146 -64t146 64q60 63 60 152t-60 152q-60 64 -146 64t-146 -64q-60 -63 -60 -152z" />
<glyph unicode="&#xa5;" horiz-adv-x="1469" d="M106 324l19 182h407l22 174h-408l19 182h318l-259 668h355l167 -559l28 -109l46 109l275 559h422l-461 -668h304l-19 -182h-410l-25 -174h411l-16 -182h-421l-45 -324h-367l41 324h-403z" />
<glyph unicode="&#xa6;" horiz-adv-x="854" d="M320 -186v864h253v-864h-253zM320 916v864h253v-864h-253z" />
<glyph unicode="&#xa7;" horiz-adv-x="1194" d="M67 -72l57 251q78 -87 325 -111q31 -3 72.5 -3t80.5 8.5t62 24.5q39 28 39.5 71.5t-16 66.5t-48 44t-76.5 42l-101 50q-255 127 -334 314q-29 66 -29 148q0 174 187 289q-39 72 -39 160.5t33.5 157.5t100.5 121q145 111 397 111q192 0 332 -74q34 -18 49 -31l-67 -221 q-41 57 -210 80q-51 7 -103 7t-92.5 -9t-66.5 -25q-51 -30 -51 -84q-2 -56 57 -96q28 -19 71 -40l99 -48q358 -182 362 -465q0 -134 -102 -247q-33 -36 -74 -64q35 -68 36 -151.5t-30 -151.5t-96 -121q-144 -119 -405 -119q-189 0 -362 83q-41 19 -58 32zM389 887 q-1 -51 9 -82t38 -61q54 -59 154 -113t152 -79t100 -54q35 53 35 104t-10 80.5t-37 59.5q-51 57 -202 140l-106 52q-52 26 -100 55q-32 -51 -33 -102z" />
<glyph unicode="&#xa8;" horiz-adv-x="817" d="M-7 1507.5q0 35.5 13.5 72.5t37.5 64q50 57 133 57q69 0 114 -51q41 -46 41 -97t-11.5 -89.5t-35 -66t-58.5 -43.5t-74.5 -16t-66.5 14q-57 31 -82 92q-11 28 -11 63.5zM480 1582q26 73 92 104q34 15 73 15t69 -14q59 -28 82 -88q10 -27 10 -62.5t-12 -73.5t-35.5 -65.5 t-59.5 -43.5t-75 -16t-66.5 14.5t-47.5 37.5q-68 81 -30 192z" />
<glyph unicode="&#xa9;" horiz-adv-x="2091" d="M175 962q0 122 30.5 234.5t87 209.5t135.5 176.5t176 136.5q201 119 441 119q239 0 442 -119q303 -178 398 -523q31 -112 31 -233.5t-31 -234t-87 -210t-135 -177.5t-176 -137q-204 -120 -442 -120t-441 120q-196 116 -312 314q-117 203 -117 444zM317 962 q0 -103 25 -198.5t71 -179t111 -152t146 -116.5q171 -103 375 -103t375 103q162 97 257 268q96 175 96 379q0 311 -207 529q-131 139 -322 193q-94 27 -199 27q-204 0 -375 -102q-162 -97 -257 -269q-96 -173 -96 -379zM599 954v7q0 217 125 350q134 144 370 144 q113 0 213 -37q26 -9 41 -18l-37 -205q-80 55 -213 55q-109 0 -178 -71q-70 -72 -70 -187v-45t18 -98t52 -94q64 -71 190.5 -71t213.5 63l44 -173q-80 -69 -220 -94q-48 -9 -124.5 -9t-159.5 39t-142 106q-123 138 -123 338z" />
<glyph unicode="&#xaa;" horiz-adv-x="963" d="M92 1025q0 89 45 194t125 185q173 173 430 173q102 0 198 -32l161 28l-161 -847h-218l-7 154q-149 -154 -310 -154q-190 0 -245 160q-18 50 -18 139zM391 1040.5q0 -67.5 16.5 -96t61.5 -28.5q83 0 178 115l88 395q-24 6 -63 6t-81.5 -20.5t-75.5 -54t-56.5 -76 t-38.5 -87.5q-29 -86 -29 -153.5z" />
<glyph unicode="&#xab;" horiz-adv-x="1996" d="M174 530l32 190l742 396l58 -205l-430 -306l364 -301l-110 -172zM980 530l32 190l742 396l58 -205l-430 -306l364 -301l-110 -172z" />
<glyph unicode="&#xac;" horiz-adv-x="1370" d="M202 626l26 227h960l-62 -531h-257l36 304h-703z" />
<glyph unicode="&#xad;" horiz-adv-x="1706" />
<glyph unicode="&#xae;" horiz-adv-x="2091" d="M171 962q0 121 31 233.5t87.5 209.5t136 177t176.5 137q204 119 443 119q240 0 443 -119q196 -115 313 -314q119 -203 119 -443q0 -241 -119 -444q-116 -199 -313 -315q-204 -120 -443 -120q-237 0 -443 120q-197 116 -312 315q-119 204 -119 444zM313 962 q0 -312 210 -530q211 -219 522 -219t522 219q133 139 185 330q25 96 25 199.5t-25.5 199t-72 179t-112.5 151.5t-147 117q-170 102 -375 102q-309 0 -522 -219q-133 -137 -185 -331q-25 -95 -25 -198zM700 486v963h97q31 0 58 1l57 2q88 3 164.5 3t145.5 -21t114 -58 q92 -73 92 -197q0 -263 -194 -319q80 -46 152 -199q19 -39 36 -69l30 -50q13 -21 40 -55h-255q-16 17 -25.5 38t-24 49.5t-30 67.5t-35.5 77q-46 90 -106 116l-42 -1h-49v-348h-225zM925 998q31 -7 120 -7q157 0 157 159q0 68 -39 104t-132 36h-38q-35 0 -68 -11v-281z" />
<glyph unicode="&#xaf;" horiz-adv-x="620" d="M26 1405l18 209h577l-18 -209h-577z" />
<glyph unicode="&#xb0;" horiz-adv-x="957" d="M205 1265v10q2 153 109 256t268 103q153 0 259 -106q100 -100 100 -248q0 -157 -111 -262q-109 -103 -268 -103q-79 0 -145 29q-133 57 -188 192q-24 60 -24 129zM409 1255.5q0 -17.5 11.5 -48.5t33.5 -54.5t51.5 -37.5t64.5 -14t65.5 13.5t53.5 36.5q48 50 48 125v20.5 t-12 48t-34 53.5q-46 51 -115 51q-111 0 -154 -105q-13 -31 -13 -51v-37.5z" />
<glyph unicode="&#xb1;" horiz-adv-x="1356" d="M163 0l17 207h905l-16 -207h-906zM182 654l35 263h249l117 -11l9 139l30 279h272l-26 -279l-25 -138l98 10h275l-35 -263h-274l-97 7l-6 -135l-34 -276h-273l33 276l25 135l-124 -7h-249z" />
<glyph unicode="&#xb2;" horiz-adv-x="1163" d="M151 721q162 87 353 259q227 207 227 319t-112 112q-176 0 -279 -98l-112 145q51 70 174 124q144 65 261 65t189 -20t122 -57q101 -77 101 -212q0 -138 -121 -306q-131 -179 -330 -286l465 26l-17 -246h-848z" />
<glyph unicode="&#xb3;" horiz-adv-x="1071" d="M111 565l44 191q93 -60 250 -60q191 0 259 103q23 35 23 85q0 97 -109 104l-238 -59l35 209q156 39 203.5 71t60.5 56t13 43.5t-6 36.5t-20 32q-34 36 -97 36q-136 0 -227 -67l-75 180q169 118 411 118q186 0 272 -84q63 -61 63 -152q0 -218 -187 -291q214 -37 214 -247 q0 -176 -152 -283q-145 -103 -364 -103q-163 0 -301 48q-43 15 -72 33z" />
<glyph unicode="&#xb4;" horiz-adv-x="565" d="M19 1325l334 449l209 -200q-30 -56 -178 -182q-160 -136 -241 -166z" />
<glyph unicode="&#xb5;" horiz-adv-x="1364" d="M51 -372l165 1173q10 71 -12 100q-7 9 -17 9q-41 0 -87 -46l-48 165q63 63 214 110q55 17 107.5 17t93.5 -12q124 -34 124 -160q0 -14 -2 -30l-64 -519q-4 -32 -4 -57q0 -137 105 -137q47 0 88 34q79 66 88 138l94 727h352l-109 -862q-5 -39 6 -61t26 -22t30.5 6.5 t30.5 16.5q31 21 50 48l78 -133l-50 -49q-106 -102 -266 -102q-82 0 -118 22q-63 39 -78 118q-83 -138 -221 -138q-84 0 -141 37q-23 15 -36 39l-64 -432h-335z" />
<glyph unicode="&#xb6;" horiz-adv-x="1364" d="M79 1085q0 335 337 446q122 40 299 40q85 0 173 -7q169 -12 221 -12h348l-25 -192l-167 -33l-175 -1327h-279l171 1322h-194l-173 -1322h-276l102 678q-159 4 -260 118q-102 115 -102 289z" />
<glyph unicode="&#xb7;" horiz-adv-x="686" d="M149 756.5q0 54.5 14.5 93.5t41.5 68q60 66 152 66q124 0 152 -92q9 -27 9 -66.5t-15 -80t-43 -69.5q-58 -59 -143 -59t-126.5 42.5t-41.5 97z" />
<glyph unicode="&#xb8;" horiz-adv-x="484" d="M-63 -436l36 203q35 -16 76.5 -16t73.5 5t56 18.5t38.5 38t16.5 58t2 79t-9 80.5l100 4l89 -4q34 -47 56 -196q6 -41 6 -81.5t-16 -83t-52 -73.5q-76 -67 -233 -67q-81 0 -156 14.5t-84 20.5z" />
<glyph unicode="&#xb9;" horiz-adv-x="1020" d="M282 1466q144 37 316 122q71 35 100 57l169 -21l-148 -1078h-305l112 814l-231 -52z" />
<glyph unicode="&#xba;" horiz-adv-x="946" d="M100 1071q0 238 162 383q150 135 365 135q171 0 271 -93q105 -96 105 -262q0 -246 -161 -387q-74 -65 -171 -98t-188.5 -33t-158 24t-116.5 70q-108 98 -108 261zM390 1076q0 -192 105 -192q157 0 201 208q14 70 14 158t-23 133t-75.5 45t-84 -18t-55 -47t-39 -66.5 t-25.5 -76.5q-18 -70 -18 -144z" />
<glyph unicode="&#xbb;" horiz-adv-x="1996" d="M213 327l430 306l-364 301l110 172l656 -398l-32 -190l-742 -396zM1019 327l430 306l-364 301l110 172l656 -398l-32 -190l-742 -396z" />
<glyph unicode="&#xbc;" horiz-adv-x="2560" d="M312 1466q144 37 316 122q71 35 100 57l169 -21l-148 -1078h-305l112 814l-231 -52zM728 0l681 1530h259l-681 -1530h-259zM1306 185l550 926l68 1l213 -104l-445 -669l-66 -86l302 10l35 249l267 23l-32 -262l192 7l-24 -223h-194l-35 -293h-278l40 293h-532z" />
<glyph unicode="&#xbd;" horiz-adv-x="2560" d="M312 1466q144 37 316 122q71 35 100 57l169 -21l-148 -1078h-305l112 814l-231 -52zM728 0l681 1530h259l-681 -1530h-259zM1385 7q162 87 353 259q227 207 227 319t-112 112q-176 0 -279 -98l-112 145q51 70 174 124q144 65 261 65t189 -20t122 -57q101 -77 101 -212 q0 -138 -121 -306q-131 -179 -330 -286l465 26l-17 -246h-848z" />
<glyph unicode="&#xbe;" horiz-adv-x="2560" d="M69 622l44 191q93 -60 250 -60q191 0 259 103q23 35 23 85q0 97 -109 104l-238 -59l35 209q156 39 203.5 71t60.5 56t13 43.5t-6 36.5t-20 32q-34 36 -97 36q-136 0 -227 -67l-75 180q169 118 411 118q186 0 272 -84q63 -61 63 -152q0 -218 -187 -291q214 -37 214 -247 q0 -176 -152 -283q-145 -103 -364 -103q-163 0 -301 48q-43 15 -72 33zM728 0l681 1530h259l-681 -1530h-259zM1306 185l550 926l68 1l213 -104l-445 -669l-66 -86l302 10l35 249l267 23l-32 -262l192 7l-24 -223h-194l-35 -293h-278l40 293h-532z" />
<glyph unicode="&#xbf;" horiz-adv-x="1068" d="M46 86q0 92 25.5 160.5t67 120.5t94.5 90.5t109 69.5l108 59q118 61 162 119q25 34 25 65.5t-5.5 49t-12.5 33.5l-13 29q-7 14 -10 23l167 66l17 -1q76 -52 112 -172q11 -37 11 -76.5t-10.5 -77t-38.5 -72.5q-53 -68 -203 -143q-209 -94 -261 -178q-23 -61 -23 -115 t21 -92t60 -66q86 -62 223 -62q118 0 207 23l-56 -230q-42 -35 -152 -49q-33 -4 -63 -4q-279 0 -427 124q-134 112 -134 306zM432 1236.5q0 57.5 15 98t43 69.5q58 59 143 59t126.5 -42.5t41.5 -97t-14.5 -93.5t-41.5 -68.5t-65.5 -47.5t-84.5 -18t-77 12t-50 32 q-36 39 -36 96.5z" />
<glyph unicode="&#xc0;" horiz-adv-x="1345" d="M-123 -1l740 1531h450l227 -1530l-355 -1l-33 287h-522l-117 -286zM461 1827l210 187l279 -342l-143 -122q-116 43 -255 168q-66 60 -91 109zM482 527h397l-76 675l-6 119l-39 -119z" />
<glyph unicode="&#xc1;" horiz-adv-x="1345" d="M-123 -1l740 1531h450l227 -1530l-355 -1l-33 287h-522l-117 -286zM482 527h397l-76 675l-6 119l-39 -119zM723 1672l279 342l210 -187q-50 -95 -225 -211q-70 -47 -121 -66z" />
<glyph unicode="&#xc2;" horiz-adv-x="1345" d="M-123 -1l740 1531h450l227 -1530l-355 -1l-33 287h-522l-117 -286zM457 1666l371 348h180l212 -337l-145 -78l-183 167l-287 -167zM482 527h397l-76 675l-6 119l-39 -119z" />
<glyph unicode="&#xc3;" horiz-adv-x="1345" d="M-123 -1l740 1531h450l227 -1530l-355 -1l-33 287h-522l-117 -286zM440 1783q36 71 128 133q97 64 178 64q74 0 115.5 -26.5t62 -45.5t40.5 -35q46 -37 84 -37t62.5 10t45 25.5t37.5 34.5l32 40l119 -145q-32 -76 -121 -140q-95 -69 -179 -69q-112 0 -191 70 q-49 45 -79.5 59t-60 14.5t-52 -7t-43 -20t-38.5 -28.5l-34 -33zM482 527h397l-76 675l-6 119l-39 -119z" />
<glyph unicode="&#xc4;" horiz-adv-x="1345" d="M-123 -1l740 1531h450l227 -1530l-355 -1l-33 287h-522l-117 -286zM433 1801.5q0 35.5 13.5 72.5t36.5 64q51 57 134 57q69 0 114 -51q41 -46 41 -97t-11.5 -89.5t-35 -66t-58.5 -43.5t-74.5 -16t-67.5 14q-56 31 -81 92q-11 28 -11 63.5zM482 527h397l-76 675l-6 119 l-39 -119zM921 1876q25 73 92 104q33 15 72 15t68 -14q60 -28 83 -88q10 -27 10 -62.5t-12 -73.5t-35.5 -65.5t-59.5 -43.5t-75 -16t-66.5 14.5t-47.5 37.5q-68 81 -29 192z" />
<glyph unicode="&#xc5;" horiz-adv-x="1345" d="M-123 -1l732 1515q-119 61 -119 197q0 159 136 239q108 64 254 64q215 0 283 -130q23 -43 23 -103q0 -165 -142 -251h23l227 -1530l-355 -1l-33 287h-522l-117 -286zM482 527h397l-76 675l-6 119l-39 -119zM686 1734q0 -52 44 -88q43 -36 84 -36q81 0 129 32t48 98 t-41.5 102t-82.5 36t-71 -7.5t-54 -24.5q-56 -37 -56 -112z" />
<glyph unicode="&#xc6;" horiz-adv-x="1984" d="M-121 0l763 1328l-242 32l28 170h1557l-37 -275l-562 2l-48 -337l419 5l-36 -276l-421 9l-55 -388l633 10l-37 -280h-989l42 296h-465l-158 -296h-392zM563 547h367l104 723l-80 8z" />
<glyph unicode="&#xc7;" horiz-adv-x="1204" d="M95 607.5q0 141.5 26.5 258t77 219t122 187.5t161.5 146q190 128 425 128q166 0 299 -56l53 -14l-102 -335q-122 106 -287 106q-274 0 -373 -326q-41 -135 -41 -260.5t15 -192t48 -110.5q65 -87 212 -87q136 0 256 60q32 16 52 30l46 -249q-80 -57 -228 -98 q-58 -16 -124 -24q42 -121 42 -198.5t-16 -120t-51 -73.5q-77 -67 -234 -67q-81 0 -156 14.5t-84 20.5l36 203q35 -16 76.5 -16t73.5 5t56 18q51 29 55 102q4 60 -1 114q-299 47 -396 351q-39 123 -39 264.5z" />
<glyph unicode="&#xc8;" horiz-adv-x="1204" d="M72 0l219 1530h914l-37 -275l-562 2l-48 -337l419 5l-36 -276l-421 9l-55 -388l633 10l-37 -280h-989zM399 1827l210 187l279 -342l-143 -122q-116 43 -255 168q-66 60 -91 109z" />
<glyph unicode="&#xc9;" horiz-adv-x="1204" d="M72 0l219 1530h914l-37 -275l-562 2l-48 -337l419 5l-36 -276l-421 9l-55 -388l633 10l-37 -280h-989zM661 1672l279 342l210 -187q-50 -95 -225 -211q-70 -47 -121 -66z" />
<glyph unicode="&#xca;" horiz-adv-x="1204" d="M72 0l219 1530h914l-37 -275l-562 2l-48 -337l419 5l-36 -276l-421 9l-55 -388l633 10l-37 -280h-989zM395 1666l371 348h180l212 -337l-145 -78l-183 167l-287 -167z" />
<glyph unicode="&#xcb;" horiz-adv-x="1204" d="M72 0l219 1530h914l-37 -275l-562 2l-48 -337l419 5l-36 -276l-421 9l-55 -388l633 10l-37 -280h-989zM371 1801.5q0 35.5 13.5 72.5t36.5 64q51 57 134 57q69 0 114 -51q41 -46 41 -97t-11.5 -89.5t-35 -66t-58.5 -43.5t-74.5 -16t-67.5 14q-56 31 -81 92 q-11 28 -11 63.5zM859 1876q25 73 92 104q33 15 72 15t68 -14q60 -28 83 -88q10 -27 10 -62.5t-12 -73.5t-35.5 -65.5t-59.5 -43.5t-75 -16t-66.5 14.5t-47.5 37.5q-68 81 -29 192z" />
<glyph unicode="&#xcc;" horiz-adv-x="706" d="M98 0l219 1530h354l-219 -1530h-354zM140 1827l210 187l279 -342l-143 -122q-116 43 -255 168q-66 60 -91 109z" />
<glyph unicode="&#xcd;" horiz-adv-x="706" d="M98 0l219 1530h354l-219 -1530h-354zM402 1672l279 342l210 -187q-50 -95 -225 -211q-70 -47 -121 -66z" />
<glyph unicode="&#xce;" horiz-adv-x="706" d="M98 0l219 1530h354l-219 -1530h-354zM136 1666l371 348h180l212 -337l-145 -78l-183 167l-287 -167z" />
<glyph unicode="&#xcf;" horiz-adv-x="706" d="M98 0l219 1530h354l-219 -1530h-354zM113 1801.5q0 35.5 13.5 72.5t36.5 64q51 57 134 57q69 0 114 -51q41 -46 41 -97t-11.5 -89.5t-35 -66t-58.5 -43.5t-74.5 -16t-67.5 14q-56 31 -81 92q-11 28 -11 63.5zM601 1876q25 73 92 104q33 15 72 15t68 -14q60 -28 83 -88 q10 -27 10 -62.5t-12 -73.5t-35.5 -65.5t-59.5 -43.5t-75 -16t-66.5 14.5t-47.5 37.5q-68 81 -29 192z" />
<glyph unicode="&#xd0;" horiz-adv-x="1438" d="M29 673l25 251h163l87 608h156l387 16q581 0 581 -614q0 -397 -208 -660q-144 -181 -376 -252q-119 -36 -262 -36q-46 0 -121 5q-165 11 -232 11h-144l96 671h-152zM477 266q63 -21 164.5 -21t182.5 55.5t134 149.5q106 187 106 489q0 201 -70 278q-64 70 -220 70 q-88 0 -153 -13l-50 -350h294l-26 -251h-304z" />
<glyph unicode="&#xd1;" horiz-adv-x="1512" d="M84 0l219 1530h307l356 -792l79 -260l13 260l97 792h342l-219 -1530h-297l-348 833l-99 275l3 -275l-115 -833h-338zM495 1783q36 71 128 133q97 64 178 64q74 0 115.5 -26.5t62 -45.5t40.5 -35q46 -37 84 -37t62.5 10t45 25.5t37.5 34.5l32 40l119 -145 q-32 -76 -121 -140q-95 -69 -179 -69q-112 0 -191 70q-49 45 -79.5 59t-60 14.5t-52 -7t-43 -20t-38.5 -28.5l-34 -33z" />
<glyph unicode="&#xd2;" horiz-adv-x="1394" d="M66 582q0 126 23 248.5t67.5 230.5t110 197t149.5 153q176 135 405 135q259 0 407 -178q136 -164 136 -422q0 -404 -198 -676q-133 -182 -331 -251q-101 -35 -228 -35t-230.5 47t-172.5 128t-103.5 189t-34.5 234zM430 584.5q0 -87.5 14 -154t41.5 -106.5t67.5 -57 t94.5 -17t102.5 29t87 78.5t69.5 116.5t51.5 144q42 152 42 284t-14 198.5t-42 106.5q-50 73 -161 73q-105 0 -191 -110q-116 -149 -152 -418q-10 -80 -10 -167.5zM507 1827l210 187l279 -342l-143 -122q-116 43 -255 168q-66 60 -91 109z" />
<glyph unicode="&#xd3;" horiz-adv-x="1394" d="M66 582q0 126 23 248.5t67.5 230.5t110 197t149.5 153q176 135 405 135q259 0 407 -178q136 -164 136 -422q0 -404 -198 -676q-133 -182 -331 -251q-101 -35 -228 -35t-230.5 47t-172.5 128t-103.5 189t-34.5 234zM430 584.5q0 -87.5 14 -154t41.5 -106.5t67.5 -57 t94.5 -17t102.5 29t87 78.5t69.5 116.5t51.5 144q42 152 42 284t-14 198.5t-42 106.5q-50 73 -161 73q-105 0 -191 -110q-116 -149 -152 -418q-10 -80 -10 -167.5zM769 1672l279 342l210 -187q-50 -95 -225 -211q-70 -47 -121 -66z" />
<glyph unicode="&#xd4;" horiz-adv-x="1394" d="M66 582q0 126 23 248.5t67.5 230.5t110 197t149.5 153q176 135 405 135q259 0 407 -178q136 -164 136 -422q0 -404 -198 -676q-133 -182 -331 -251q-101 -35 -228 -35t-230.5 47t-172.5 128t-103.5 189t-34.5 234zM430 584.5q0 -87.5 14 -154t41.5 -106.5t67.5 -57 t94.5 -17t102.5 29t87 78.5t69.5 116.5t51.5 144q42 152 42 284t-14 198.5t-42 106.5q-50 73 -161 73q-105 0 -191 -110q-116 -149 -152 -418q-10 -80 -10 -167.5zM503 1666l371 348h180l212 -337l-145 -78l-183 167l-287 -167z" />
<glyph unicode="&#xd5;" horiz-adv-x="1394" d="M66 582q0 126 23 248.5t67.5 230.5t110 197t149.5 153q176 135 405 135q259 0 407 -178q136 -164 136 -422q0 -404 -198 -676q-133 -182 -331 -251q-101 -35 -228 -35t-230.5 47t-172.5 128t-103.5 189t-34.5 234zM430 584.5q0 -87.5 14 -154t41.5 -106.5t67.5 -57 t94.5 -17t102.5 29t87 78.5t69.5 116.5t51.5 144q42 152 42 284t-14 198.5t-42 106.5q-50 73 -161 73q-105 0 -191 -110q-116 -149 -152 -418q-10 -80 -10 -167.5zM486 1783q36 71 128 133q97 64 178 64q74 0 115.5 -26.5t62 -45.5t40.5 -35q46 -37 84 -37t62.5 10t45 25.5 t37.5 34.5l32 40l119 -145q-32 -76 -121 -140q-95 -69 -179 -69q-112 0 -191 70q-49 45 -79.5 59t-60 14.5t-52 -7t-43 -20t-38.5 -28.5l-34 -33z" />
<glyph unicode="&#xd6;" horiz-adv-x="1394" d="M66 582q0 126 23 248.5t67.5 230.5t110 197t149.5 153q176 135 405 135q259 0 407 -178q136 -164 136 -422q0 -404 -198 -676q-133 -182 -331 -251q-101 -35 -228 -35t-230.5 47t-172.5 128t-103.5 189t-34.5 234zM430 584.5q0 -87.5 14 -154t41.5 -106.5t67.5 -57 t94.5 -17t102.5 29t87 78.5t69.5 116.5t51.5 144q42 152 42 284t-14 198.5t-42 106.5q-50 73 -161 73q-105 0 -191 -110q-116 -149 -152 -418q-10 -80 -10 -167.5zM479 1801.5q0 35.5 13.5 72.5t36.5 64q51 57 134 57q69 0 114 -51q41 -46 41 -97t-11.5 -89.5t-35 -66 t-58.5 -43.5t-74.5 -16t-67.5 14q-56 31 -81 92q-11 28 -11 63.5zM967 1876q25 73 92 104q33 15 72 15t68 -14q60 -28 83 -88q10 -27 10 -62.5t-12 -73.5t-35.5 -65.5t-59.5 -43.5t-75 -16t-66.5 14.5t-47.5 37.5q-68 81 -29 192z" />
<glyph unicode="&#xd7;" horiz-adv-x="1397" d="M166 454l385 336l-313 337l209 185l291 -361l379 361l173 -207l-393 -336l321 -337l-209 -185l-299 361l-371 -360z" />
<glyph unicode="&#xd8;" horiz-adv-x="1393" d="M66 580q0 408 200 680q135 183 335 252q102 36 240.5 36t259.5 -70l110 192l89 -49l-117 -204q181 -167 181 -469q0 -404 -198 -676q-209 -286 -568 -286q-135 0 -255 63l-113 -181l-89 49l119 188q-194 162 -194 475zM430 604q0 -131 23 -210l474 836q-48 52 -144 52 q-105 0 -191 -110q-116 -149 -152 -418q-10 -80 -10 -150zM510 296q48 -44 120 -44t120 29t87 78.5t69.5 116.5t51.5 144q42 152 42 292t-19 210z" />
<glyph unicode="&#xd9;" horiz-adv-x="1440" d="M114 432v28q0 52 13 137l133 933h353l-126 -888q-11 -76 -11 -162t11 -123.5t34 -60.5q44 -41 129 -41t131 17.5t80 61.5q65 82 98 300l127 896h352l-130 -933q-46 -329 -208 -473q-159 -140 -480 -140q-381 0 -476 262q-30 82 -30 186zM487 1827l210 187l279 -342 l-143 -122q-116 43 -255 168q-66 60 -91 109z" />
<glyph unicode="&#xda;" horiz-adv-x="1440" d="M114 432v28q0 52 13 137l133 933h353l-126 -888q-11 -76 -11 -162t11 -123.5t34 -60.5q44 -41 129 -41t131 17.5t80 61.5q65 82 98 300l127 896h352l-130 -933q-46 -329 -208 -473q-159 -140 -480 -140q-381 0 -476 262q-30 82 -30 186zM749 1672l279 342l210 -187 q-50 -95 -225 -211q-70 -47 -121 -66z" />
<glyph unicode="&#xdb;" horiz-adv-x="1440" d="M114 432v28q0 52 13 137l133 933h353l-126 -888q-11 -76 -11 -162t11 -123.5t34 -60.5q44 -41 129 -41t131 17.5t80 61.5q65 82 98 300l127 896h352l-130 -933q-46 -329 -208 -473q-159 -140 -480 -140q-381 0 -476 262q-30 82 -30 186zM483 1666l371 348h180l212 -337 l-145 -78l-183 167l-287 -167z" />
<glyph unicode="&#xdc;" horiz-adv-x="1440" d="M114 432v28q0 52 13 137l133 933h353l-126 -888q-11 -76 -11 -162t11 -123.5t34 -60.5q44 -41 129 -41t131 17.5t80 61.5q65 82 98 300l127 896h352l-130 -933q-46 -329 -208 -473q-159 -140 -480 -140q-381 0 -476 262q-30 82 -30 186zM459 1801.5q0 35.5 13.5 72.5 t36.5 64q51 57 134 57q69 0 114 -51q41 -46 41 -97t-11.5 -89.5t-35 -66t-58.5 -43.5t-74.5 -16t-67.5 14q-56 31 -81 92q-11 28 -11 63.5zM947 1876q25 73 92 104q33 15 72 15t68 -14q60 -28 83 -88q10 -27 10 -62.5t-12 -73.5t-35.5 -65.5t-59.5 -43.5t-75 -16t-66.5 14.5 t-47.5 37.5q-68 81 -29 192z" />
<glyph unicode="&#xdd;" horiz-adv-x="1176" d="M95 1530h372l141 -525l25 -134l58 134l284 525h393l-600 -940l-85 -590h-354l85 590zM605 1672l279 342l210 -187q-50 -95 -225 -211q-70 -47 -121 -66z" />
<glyph unicode="&#xde;" horiz-adv-x="1306" d="M76 0l215 1530h360l-35 -247q80 5 133 5q258 0 397.5 -107.5t140.5 -317.5q0 -260 -169 -427q-180 -178 -487 -178q-48 0 -156 12l-38 -270h-361zM512 534q44 -11 125 -11q144 0 219 82q85 93 85 247q0 190 -255 190q-74 0 -101 -5l-3 3z" />
<glyph unicode="&#xdf;" horiz-adv-x="1329" d="M65 0l124 927q60 406 277 554q119 82 271 97q70 7 148.5 7t154 -20t130.5 -59q114 -80 114 -223q0 -180 -118 -287l-58 -52q-61 -60 -61 -115q0 -50 30.5 -99t54.5 -81t46.5 -65.5t39.5 -71.5q40 -87 40 -176t-31 -154t-88 -109q-115 -89 -310 -89t-284 47l24 264 q42 -45 133 -63q28 -6 52 -6q155 0 155 119q0 63 -70 141q-97 107 -136 228q-11 33 -11 67.5t11.5 65.5t30.5 59q28 43 88 103q134 117 134 238q0 78 -78 107q-25 10 -65 10t-85.5 -26.5t-83.5 -85.5q-84 -128 -114 -385l-118 -867h-347z" />
<glyph unicode="&#xe0;" horiz-adv-x="1268" d="M70 412q0 300 176 510q195 234 528 234q118 0 247 -45l184 45l-161 -1156h-320l11 248q-81 -177 -215 -240q-52 -24 -130.5 -24t-142.5 34.5t-103 93.5q-74 108 -74 300zM355 1574l209 200l334 -449l-124 -99q-81 30 -242 166q-147 126 -177 182zM442 433q0 -209 89 -209 q67 0 145 138q63 112 100 244l47 335q-28 5 -77 5t-92 -21.5t-77 -58t-59.5 -86.5t-41.5 -107q-34 -116 -34 -240z" />
<glyph unicode="&#xe1;" horiz-adv-x="1268" d="M70 412q0 300 176 510q195 234 528 234q118 0 247 -45l184 45l-161 -1156h-320l11 248q-81 -177 -215 -240q-52 -24 -130.5 -24t-142.5 34.5t-103 93.5q-74 108 -74 300zM442 433q0 -209 89 -209q67 0 145 138q63 112 100 244l47 335q-28 5 -77 5t-92 -21.5t-77 -58 t-59.5 -86.5t-41.5 -107q-34 -116 -34 -240zM666 1325l334 449l209 -200q-30 -56 -178 -182q-160 -136 -241 -166z" />
<glyph unicode="&#xe2;" horiz-adv-x="1268" d="M70 412q0 300 176 510q195 234 528 234q118 0 247 -45l184 45l-161 -1156h-320l11 248q-81 -177 -215 -240q-52 -24 -130.5 -24t-142.5 34.5t-103 93.5q-74 108 -74 300zM424 1296l371 374h180l212 -374l-155 -68l-180 174l-290 -173zM442 433q0 -209 89 -209 q67 0 145 138q63 112 100 244l47 335q-28 5 -77 5t-92 -21.5t-77 -58t-59.5 -86.5t-41.5 -107q-34 -116 -34 -240z" />
<glyph unicode="&#xe3;" horiz-adv-x="1268" d="M70 412q0 300 176 510q195 234 528 234q118 0 247 -45l184 45l-161 -1156h-320l11 248q-81 -177 -215 -240q-52 -24 -130.5 -24t-142.5 34.5t-103 93.5q-74 108 -74 300zM366 1501q36 71 128 133q97 64 178 64q99 0 178 -77q49 -48 76 -62.5t56.5 -14.5t54 10t45 25.5 t36.5 34.5l33 40l119 -145q-32 -76 -120 -140q-96 -69 -180 -69q-113 0 -190 76q-49 47 -80 62t-60.5 15.5t-52 -7t-43 -20t-38.5 -28.5l-34 -33zM442 433q0 -209 89 -209q67 0 145 138q63 112 100 244l47 335q-28 5 -77 5t-92 -21.5t-77 -58t-59.5 -86.5t-41.5 -107 q-34 -116 -34 -240z" />
<glyph unicode="&#xe4;" horiz-adv-x="1268" d="M70 412q0 300 176 510q195 234 528 234q118 0 247 -45l184 45l-161 -1156h-320l11 248q-81 -177 -215 -240q-52 -24 -130.5 -24t-142.5 34.5t-103 93.5q-74 108 -74 300zM416 1507.5q0 35.5 13.5 72.5t37.5 64q50 57 133 57q69 0 114 -51q41 -46 41 -97t-11.5 -89.5 t-35 -66t-58.5 -43.5t-74.5 -16t-66.5 14q-57 31 -82 92q-11 28 -11 63.5zM442 433q0 -209 89 -209q67 0 145 138q63 112 100 244l47 335q-28 5 -77 5t-92 -21.5t-77 -58t-59.5 -86.5t-41.5 -107q-34 -116 -34 -240zM903 1582q26 73 92 104q34 15 73 15t69 -14 q59 -28 82 -88q10 -27 10 -62.5t-12 -73.5t-35.5 -65.5t-59.5 -43.5t-75 -16t-66.5 14.5t-47.5 37.5q-68 81 -30 192z" />
<glyph unicode="&#xe5;" horiz-adv-x="1268" d="M70 412q0 300 176 510q195 234 528 234q118 0 247 -45l184 45l-161 -1156h-320l11 248q-81 -177 -215 -240q-52 -24 -130.5 -24t-142.5 34.5t-103 93.5q-74 108 -74 300zM442 433q0 -209 89 -209q67 0 145 138q63 112 100 244l47 335q-28 5 -77 5t-92 -21.5t-77 -58 t-59.5 -86.5t-41.5 -107q-34 -116 -34 -240zM500 1482.5q0 102.5 39 161.5t97 94q108 66 254 66q215 0 283 -132q23 -44 23 -114.5t-34 -129.5t-89 -98t-123 -58t-138.5 -19t-128 16t-98.5 47q-85 64 -85 166.5zM696 1520q0 -52 44 -88q43 -36 84 -36q81 0 129 32t48 98 t-41.5 102t-82.5 36t-71 -7.5t-54 -24.5q-56 -37 -56 -112z" />
<glyph unicode="&#xe6;" horiz-adv-x="1770" d="M68 412q0 190 84 357q135 272 438 357q105 30 245.5 30t248.5 -66q136 66 290 66q257 0 320 -154q20 -49 20 -135t-48 -168t-130 -141q-145 -104 -429 -175q0 -79 22 -107q39 -50 123 -50q88 0 191 58q91 50 132 105l92 -171q-56 -82 -177 -149q-152 -85 -326 -85 q-257 0 -367 188q-33 57 -49 122q-91 -208 -236 -282q-54 -28 -133.5 -28t-142 34.5t-100.5 93.5q-68 106 -68 300zM440 445.5q0 -114.5 17 -157t52.5 -42.5t68.5 28.5t65 75.5q73 105 98 232q32 210 149 352q-52 12 -103 12t-101 -21.5t-89.5 -58t-69 -86.5t-49.5 -107 q-38 -113 -38 -227.5zM1102 561q96 7 178 91q90 92 90 207q0 53 -17.5 77t-53.5 24t-62.5 -20t-47.5 -52.5t-37 -74.5t-27 -87q-21 -83 -23 -165z" />
<glyph unicode="&#xe7;" horiz-adv-x="956" d="M74 434q0 165 46.5 296.5t129.5 225.5q175 200 445 200q159 0 258 -43l-86 -342q-58 58 -114 82.5t-93 24.5t-79 -22.5t-73 -69.5q-70 -104 -70 -288q0 -135 23.5 -180.5t52 -61t65 -15.5t71.5 11t67 28q68 38 102 76l89 -171q-96 -142 -280 -185q47 -115 47 -238 q0 -165 -161 -215q-57 -18 -108.5 -18t-88 3t-74.5 8q-94 14 -109 24l36 203q35 -16 76.5 -16t73.5 5t56 18q51 29 55 102q4 58 -1 111q-183 18 -277 162q-79 120 -79 285z" />
<glyph unicode="&#xe8;" horiz-adv-x="1112" d="M73 476q0 122 50 253t137 226q184 201 456 201q257 0 320 -154q20 -49 20 -135t-48 -168t-130 -141q-145 -104 -429 -175q0 -79 22 -107q39 -50 123 -50q88 0 191 58q91 50 132 105l92 -171q-56 -82 -177 -149q-152 -85 -326 -85q-218 0 -332 140q-101 123 -101 352z M275 1574l209 200l334 -449l-124 -99q-81 30 -242 166q-147 126 -177 182zM444 561q96 7 178 91q90 92 90 207q0 53 -17.5 77t-53.5 24t-62.5 -20t-47.5 -52.5t-37 -74.5t-27 -87q-21 -83 -23 -165z" />
<glyph unicode="&#xe9;" horiz-adv-x="1112" d="M73 476q0 122 50 253t137 226q184 201 456 201q257 0 320 -154q20 -49 20 -135t-48 -168t-130 -141q-145 -104 -429 -175q0 -79 22 -107q39 -50 123 -50q88 0 191 58q91 50 132 105l92 -171q-56 -82 -177 -149q-152 -85 -326 -85q-218 0 -332 140q-101 123 -101 352z M444 561q96 7 178 91q90 92 90 207q0 53 -17.5 77t-53.5 24t-62.5 -20t-47.5 -52.5t-37 -74.5t-27 -87q-21 -83 -23 -165zM586 1325l334 449l209 -200q-30 -56 -178 -182q-160 -136 -241 -166z" />
<glyph unicode="&#xea;" horiz-adv-x="1112" d="M73 476q0 122 50 253t137 226q184 201 456 201q257 0 320 -154q20 -49 20 -135t-48 -168t-130 -141q-145 -104 -429 -175q0 -79 22 -107q39 -50 123 -50q88 0 191 58q91 50 132 105l92 -171q-56 -82 -177 -149q-152 -85 -326 -85q-218 0 -332 140q-101 123 -101 352z M344 1296l371 374h180l212 -374l-155 -68l-180 174l-290 -173zM444 561q96 7 178 91q90 92 90 207q0 53 -17.5 77t-53.5 24t-62.5 -20t-47.5 -52.5t-37 -74.5t-27 -87q-21 -83 -23 -165z" />
<glyph unicode="&#xeb;" horiz-adv-x="1112" d="M73 476q0 122 50 253t137 226q184 201 456 201q257 0 320 -154q20 -49 20 -135t-48 -168t-130 -141q-145 -104 -429 -175q0 -79 22 -107q39 -50 123 -50q88 0 191 58q91 50 132 105l92 -171q-56 -82 -177 -149q-152 -85 -326 -85q-218 0 -332 140q-101 123 -101 352z M336 1507.5q0 35.5 13.5 72.5t37.5 64q50 57 133 57q69 0 114 -51q41 -46 41 -97t-11.5 -89.5t-35 -66t-58.5 -43.5t-74.5 -16t-66.5 14q-57 31 -82 92q-11 28 -11 63.5zM444 561q96 7 178 91q90 92 90 207q0 53 -17.5 77t-53.5 24t-62.5 -20t-47.5 -52.5t-37 -74.5t-27 -87 q-21 -83 -23 -165zM823 1582q26 73 92 104q34 15 73 15t69 -14q59 -28 82 -88q10 -27 10 -62.5t-12 -73.5t-35.5 -65.5t-59.5 -43.5t-75 -16t-66.5 14.5t-47.5 37.5q-68 81 -30 192z" />
<glyph unicode="&#xec;" horiz-adv-x="664" d="M4 1574l209 200l334 -449l-124 -99q-81 30 -242 166q-147 126 -177 182zM80 0l156 1140h359l-158 -1140h-357z" />
<glyph unicode="&#xed;" horiz-adv-x="664" d="M80 0l156 1140h359l-158 -1140h-357zM315 1325l334 449l209 -200q-30 -56 -178 -182q-160 -136 -241 -166z" />
<glyph unicode="&#xee;" horiz-adv-x="664" d="M73 1296l371 374h180l212 -374l-155 -68l-180 174l-290 -173zM80 0l156 1140h359l-158 -1140h-357z" />
<glyph unicode="&#xef;" horiz-adv-x="664" d="M65 1507.5q0 35.5 13.5 72.5t37.5 64q50 57 133 57q69 0 114 -51q41 -46 41 -97t-11.5 -89.5t-35 -66t-58.5 -43.5t-74.5 -16t-66.5 14q-57 31 -82 92q-11 28 -11 63.5zM80 0l156 1140h359l-158 -1140h-357zM552 1582q26 73 92 104q34 15 73 15t69 -14q59 -28 82 -88 q10 -27 10 -62.5t-12 -73.5t-35.5 -65.5t-59.5 -43.5t-75 -16t-66.5 14.5t-47.5 37.5q-68 81 -30 192z" />
<glyph unicode="&#xf0;" horiz-adv-x="1212" d="M66 420q0 175 39.5 311t112.5 231q149 196 403 196q130 0 181 -47q-6 145 -98 277l-102 -113l-126 114l119 121q-99 89 -227 125l60 179q159 -40 309 -146l134 153l118 -115l-126 -140q145 -143 219 -360q64 -188 64 -382.5t-39.5 -344t-118.5 -259.5 q-169 -236 -472 -236q-216 0 -340 139q-110 122 -110 297zM440 451.5q0 -88.5 7 -130.5t20.5 -72.5t33 -48.5t51 -18t65 29t60.5 79q65 120 88 359l6 65q3 33 5 63l4 55q1 26 1 41.5t-9 33t-28 33.5q-44 35 -91 35t-75.5 -24.5t-50.5 -66.5t-38.5 -98t-26.5 -118 q-22 -128 -22 -216.5z" />
<glyph unicode="&#xf1;" horiz-adv-x="1319" d="M76 0l156 1140h341l-13 -206q144 222 369 222q277 0 277 -302q0 -50 -16 -167l-24 -176q-9 -69 -20 -140q-45 -319 -52 -371h-357q44 304 53 374l17 136q28 227 28 291q0 86 -81 86q-87 0 -176 -111q-27 -35 -49 -78l-96 -698h-357zM419 1501q36 71 128 133q97 64 178 64 q99 0 178 -77q49 -48 76 -62.5t56.5 -14.5t54 10t45 25.5t36.5 34.5l33 40l119 -145q-32 -76 -120 -140q-96 -69 -180 -69q-113 0 -190 76q-49 47 -80 62t-60.5 15.5t-52 -7t-43 -20t-38.5 -28.5l-34 -33z" />
<glyph unicode="&#xf2;" horiz-adv-x="1181" d="M65 466q0 94 18 180t53.5 162.5t88.5 140t123 109.5q148 98 353 98q210 0 319 -144q96 -128 96 -341q0 -289 -159 -479q-173 -208 -476 -208q-211 0 -320 144q-96 128 -96 338zM283 1574l209 200l334 -449l-124 -99q-81 30 -242 166q-147 126 -177 182zM419 429 q0 -231 110 -231q151 0 207 271q22 110 22 236q0 237 -110 237q-147 0 -206 -280q-23 -109 -23 -233z" />
<glyph unicode="&#xf3;" horiz-adv-x="1181" d="M65 466q0 94 18 180t53.5 162.5t88.5 140t123 109.5q148 98 353 98q210 0 319 -144q96 -128 96 -341q0 -289 -159 -479q-173 -208 -476 -208q-211 0 -320 144q-96 128 -96 338zM419 429q0 -231 110 -231q151 0 207 271q22 110 22 236q0 237 -110 237q-147 0 -206 -280 q-23 -109 -23 -233zM594 1325l334 449l209 -200q-30 -56 -178 -182q-160 -136 -241 -166z" />
<glyph unicode="&#xf4;" horiz-adv-x="1181" d="M65 466q0 94 18 180t53.5 162.5t88.5 140t123 109.5q148 98 353 98q210 0 319 -144q96 -128 96 -341q0 -289 -159 -479q-173 -208 -476 -208q-211 0 -320 144q-96 128 -96 338zM352 1296l371 374h180l212 -374l-155 -68l-180 174l-290 -173zM419 429q0 -231 110 -231 q151 0 207 271q22 110 22 236q0 237 -110 237q-147 0 -206 -280q-23 -109 -23 -233z" />
<glyph unicode="&#xf5;" horiz-adv-x="1181" d="M65 466q0 94 18 180t53.5 162.5t88.5 140t123 109.5q148 98 353 98q210 0 319 -144q96 -128 96 -341q0 -289 -159 -479q-173 -208 -476 -208q-211 0 -320 144q-96 128 -96 338zM294 1501q36 71 128 133q97 64 178 64q99 0 178 -77q49 -48 76 -62.5t56.5 -14.5t54 10 t45 25.5t36.5 34.5l33 40l119 -145q-32 -76 -120 -140q-96 -69 -180 -69q-113 0 -190 76q-49 47 -80 62t-60.5 15.5t-52 -7t-43 -20t-38.5 -28.5l-34 -33zM419 429q0 -231 110 -231q151 0 207 271q22 110 22 236q0 237 -110 237q-147 0 -206 -280q-23 -109 -23 -233z" />
<glyph unicode="&#xf6;" horiz-adv-x="1181" d="M65 466q0 94 18 180t53.5 162.5t88.5 140t123 109.5q148 98 353 98q210 0 319 -144q96 -128 96 -341q0 -289 -159 -479q-173 -208 -476 -208q-211 0 -320 144q-96 128 -96 338zM344 1507.5q0 35.5 13.5 72.5t37.5 64q50 57 133 57q69 0 114 -51q41 -46 41 -97 t-11.5 -89.5t-35 -66t-58.5 -43.5t-74.5 -16t-66.5 14q-57 31 -82 92q-11 28 -11 63.5zM419 429q0 -231 110 -231q151 0 207 271q22 110 22 236q0 237 -110 237q-147 0 -206 -280q-23 -109 -23 -233zM831 1582q26 73 92 104q34 15 73 15t69 -14q59 -28 82 -88 q10 -27 10 -62.5t-12 -73.5t-35.5 -65.5t-59.5 -43.5t-75 -16t-66.5 14.5t-47.5 37.5q-68 81 -30 192z" />
<glyph unicode="&#xf7;" horiz-adv-x="1397" d="M224 653l36 265l960 -2l-34 -263h-962zM492 282.5q0 54.5 14.5 93.5t41.5 68q60 66 152 66q124 0 152 -92q9 -27 9 -66.5t-15 -80t-43 -69.5q-58 -59 -143 -59t-126.5 42.5t-41.5 97zM604 1194.5q0 54.5 14.5 93.5t41.5 68q60 66 152 66q124 0 152 -92q9 -27 9 -66.5 t-15 -80t-43 -69t-67.5 -44t-100 -15.5t-102 42.5t-41.5 97z" />
<glyph unicode="&#xf8;" horiz-adv-x="1180" d="M65 471q0 288 160 479q173 208 476 208q87 0 160 -27l98 172l89 -49l-98 -171q166 -127 166 -410q0 -289 -159 -479q-173 -208 -471 -208q-99 0 -169 28l-91 -146l-89 49l92 145q-164 126 -164 409zM419 472.5q0 -82.5 3 -115.5l287 562q-24 25 -63 25t-71.5 -22.5 t-58 -60.5t-44 -89t-30.5 -108q-23 -109 -23 -191.5zM464 229q25 -29 65.5 -29t74 21t59 58t43.5 86.5t30 105.5q22 110 22 184q0 97 -4 133z" />
<glyph unicode="&#xf9;" horiz-adv-x="1292" d="M121.5 216.5q-0.5 53.5 2.5 96.5t8 90q9 81 25 191l75 546h353l-70 -551l-10 -74q-17 -129 -17 -181t21 -76t48 -24q76 0 162 114q25 33 46 69l101 723h357l-156 -1140h-318l6 194q-92 -145 -241 -196q-53 -18 -110 -18t-107 12.5t-89 42.5t-62.5 79t-24 102.5zM324 1574 l209 200l334 -449l-124 -99q-81 30 -242 166q-147 126 -177 182z" />
<glyph unicode="&#xfa;" horiz-adv-x="1292" d="M121.5 216.5q-0.5 53.5 2.5 96.5t8 90q9 81 25 191l75 546h353l-70 -551l-10 -74q-17 -129 -17 -181t21 -76t48 -24q76 0 162 114q25 33 46 69l101 723h357l-156 -1140h-318l6 194q-92 -145 -241 -196q-53 -18 -110 -18t-107 12.5t-89 42.5t-62.5 79t-24 102.5zM635 1325 l334 449l209 -200q-30 -56 -178 -182q-160 -136 -241 -166z" />
<glyph unicode="&#xfb;" horiz-adv-x="1292" d="M121.5 216.5q-0.5 53.5 2.5 96.5t8 90q9 81 25 191l75 546h353l-70 -551l-10 -74q-17 -129 -17 -181t21 -76t48 -24q76 0 162 114q25 33 46 69l101 723h357l-156 -1140h-318l6 194q-92 -145 -241 -196q-53 -18 -110 -18t-107 12.5t-89 42.5t-62.5 79t-24 102.5zM393 1296 l371 374h180l212 -374l-155 -68l-180 174l-290 -173z" />
<glyph unicode="&#xfc;" horiz-adv-x="1292" d="M121.5 216.5q-0.5 53.5 2.5 96.5t8 90q9 81 25 191l75 546h353l-70 -551l-10 -74q-17 -129 -17 -181t21 -76t48 -24q76 0 162 114q25 33 46 69l101 723h357l-156 -1140h-318l6 194q-92 -145 -241 -196q-53 -18 -110 -18t-107 12.5t-89 42.5t-62.5 79t-24 102.5z M385 1507.5q0 35.5 13.5 72.5t37.5 64q50 57 133 57q69 0 114 -51q41 -46 41 -97t-11.5 -89.5t-35 -66t-58.5 -43.5t-74.5 -16t-66.5 14q-57 31 -82 92q-11 28 -11 63.5zM872 1582q26 73 92 104q34 15 73 15t69 -14q59 -28 82 -88q10 -27 10 -62.5t-12 -73.5t-35.5 -65.5 t-59.5 -43.5t-75 -16t-66.5 14.5t-47.5 37.5q-68 81 -30 192z" />
<glyph unicode="&#xfd;" horiz-adv-x="1140" d="M-92 -442l89 244q86 -61 174 -61q84 0 149 53q61 49 151 186h-206l-170 1160h352l107 -1003q62 127 101.5 247.5t55.5 174.5t27 113q19 103 27.5 226.5t8.5 163.5v78h320q6 -30 6 -136t-11.5 -191.5t-32.5 -168.5q-105 -423 -374 -792l-104 -142q-104 -145 -234 -198 q-72 -29 -144.5 -29t-110 7t-70.5 18q-55 17 -111 50zM471 1325l334 449l209 -200q-30 -56 -178 -182q-160 -136 -241 -166z" />
<glyph unicode="&#xfe;" horiz-adv-x="1290" d="M8 -492l293 2126h343l-85 -658l-21 -121q73 196 221 272q56 29 137.5 29t146 -35t103.5 -95q74 -110 74 -302q0 -298 -176 -508q-122 -146 -312 -203q-98 -29 -183 -29t-137 10l-10 -136l-40 -350h-354zM460 199q32 -5 82 -5t93 21t77 57.5t59 85.5t41 106q34 114 34 239 q0 209 -88 209q-97 0 -199 -246q-35 -85 -55 -167l1 56z" />
<glyph unicode="&#xff;" horiz-adv-x="1140" d="M-92 -442l89 244q86 -61 174 -61q84 0 149 53q61 49 151 186h-206l-170 1160h352l107 -1003q62 127 101.5 247.5t55.5 174.5t27 113q19 103 27.5 226.5t8.5 163.5v78h320q6 -30 6 -136t-11.5 -191.5t-32.5 -168.5q-105 -423 -374 -792l-104 -142q-104 -145 -234 -198 q-72 -29 -144.5 -29t-110 7t-70.5 18q-55 17 -111 50zM221 1507.5q0 35.5 13.5 72.5t37.5 64q50 57 133 57q69 0 114 -51q41 -46 41 -97t-11.5 -89.5t-35 -66t-58.5 -43.5t-74.5 -16t-66.5 14q-57 31 -82 92q-11 28 -11 63.5zM708 1582q26 73 92 104q34 15 73 15t69 -14 q59 -28 82 -88q10 -27 10 -62.5t-12 -73.5t-35.5 -65.5t-59.5 -43.5t-75 -16t-66.5 14.5t-47.5 37.5q-68 81 -30 192z" />
<glyph unicode="&#x152;" horiz-adv-x="2211" d="M66 578q0 408 200 680q135 183 335 252q102 36 239.5 36t248.5 -63.5t178 -168.5l31 216h914l-37 -275l-562 2l-48 -337l419 5l-36 -276l-421 9l-55 -388l633 10l-37 -280h-989l28 199q-200 -215 -489 -215q-265 0 -414 175q-138 162 -138 419zM430 584.5 q0 -87.5 14 -154t41.5 -106.5t67.5 -57t94.5 -17t102.5 29t87 78.5t69.5 116.5t51.5 144q42 152 42 284t-14 198.5t-42 106.5q-50 73 -161 73q-105 0 -191 -110q-116 -149 -152 -418q-10 -80 -10 -167.5z" />
<glyph unicode="&#x153;" horiz-adv-x="1775" d="M65 460q0 291 159 484q175 212 477 212q195 0 299 -130q165 130 379 130q257 0 320 -154q20 -49 20 -135t-48 -168t-131 -141q-144 -104 -428 -175q0 -79 22 -107q39 -50 123 -50q88 0 191 58q91 50 132 105l92 -171q-56 -82 -176 -149q-153 -85 -342 -85t-302 122 q-154 -122 -371 -122q-212 0 -320 140q-96 125 -96 336zM419 420q0 -222 110 -222q86 0 143 106q65 118 82 329q4 51 4 100t-7.5 92t-21.5 69q-26 48 -74 48t-80.5 -23t-58 -62.5t-44 -91.5t-30.5 -110q-23 -111 -23 -235zM1107 561q96 7 178 91q90 92 90 207q0 53 -17.5 77 t-53.5 24t-62.5 -20t-47.5 -52.5t-37 -74.5t-27 -87q-21 -83 -23 -165z" />
<glyph unicode="&#x178;" horiz-adv-x="1176" d="M95 1530h372l141 -525l25 -134l58 134l284 525h393l-600 -940l-85 -590h-354l85 590zM315 1801.5q0 35.5 13.5 72.5t36.5 64q51 57 134 57q69 0 114 -51q41 -46 41 -97t-11.5 -89.5t-35 -66t-58.5 -43.5t-74.5 -16t-67.5 14q-56 31 -81 92q-11 28 -11 63.5zM803 1876 q25 73 92 104q33 15 72 15t68 -14q60 -28 83 -88q10 -27 10 -62.5t-12 -73.5t-35.5 -65.5t-59.5 -43.5t-75 -16t-66.5 14.5t-47.5 37.5q-68 81 -29 192z" />
<glyph unicode="&#x2c6;" horiz-adv-x="803" d="M35 1296l371 374h180l212 -374l-155 -68l-180 174l-290 -173z" />
<glyph unicode="&#x2dc;" horiz-adv-x="824" d="M-44 1501q36 71 128 133q97 64 178 64q99 0 178 -77q49 -48 76 -62.5t56.5 -14.5t54 10t45 25.5t36.5 34.5l33 40l119 -145q-32 -76 -120 -140q-96 -69 -180 -69q-113 0 -190 76q-49 47 -80 62t-60.5 15.5t-52 -7t-43 -20t-38.5 -28.5l-34 -33z" />
<glyph unicode="&#x2000;" horiz-adv-x="1007" />
<glyph unicode="&#x2001;" horiz-adv-x="2014" />
<glyph unicode="&#x2002;" horiz-adv-x="1007" />
<glyph unicode="&#x2003;" horiz-adv-x="2014" />
<glyph unicode="&#x2004;" horiz-adv-x="671" />
<glyph unicode="&#x2005;" horiz-adv-x="503" />
<glyph unicode="&#x2006;" horiz-adv-x="335" />
<glyph unicode="&#x2007;" horiz-adv-x="335" />
<glyph unicode="&#x2008;" horiz-adv-x="251" />
<glyph unicode="&#x2009;" horiz-adv-x="402" />
<glyph unicode="&#x200a;" horiz-adv-x="111" />
<glyph unicode="&#x2010;" horiz-adv-x="1266" d="M223 648l37 248h840l-37 -248h-840z" />
<glyph unicode="&#x2011;" horiz-adv-x="1266" d="M223 648l37 248h840l-37 -248h-840z" />
<glyph unicode="&#x2012;" horiz-adv-x="1266" d="M223 648l37 248h840l-37 -248h-840z" />
<glyph unicode="&#x2013;" horiz-adv-x="1538" d="M223 648l37 248h1099l-37 -248h-1099z" />
<glyph unicode="&#x2014;" horiz-adv-x="2031" d="M223 648l37 248h1572l-37 -248h-1572z" />
<glyph unicode="&#x2018;" horiz-adv-x="709" d="M206 1257q0 89 35 177t88 156q98 124 231 181l115 -141l-2 -22q-58 -29 -101 -106q-49 -88 -49 -201q0 -98 39 -181q11 -24 23 -36l-5 -41l-192 -156q-119 67 -165 223q-17 58 -17 147z" />
<glyph unicode="&#x2019;" horiz-adv-x="709" d="M170 1027l2 22q58 29 101 106q49 88 49 201q0 98 -39 181q-11 24 -23 36l5 41l192 156q119 -67 165 -223q17 -58 17 -147t-35 -177t-88 -156q-98 -124 -231 -181z" />
<glyph unicode="&#x201a;" horiz-adv-x="709" d="M14 -412l2 22q58 29 101 106q49 88 49 201q0 98 -39 181q-11 24 -23 36l5 41l192 156q119 -67 165 -223q17 -58 17 -147t-35 -177t-88 -156q-98 -124 -231 -181z" />
<glyph unicode="&#x201c;" horiz-adv-x="1248" d="M206 1257q0 89 35 177t88 156q98 124 231 181l115 -141l-2 -22q-58 -29 -101 -106q-49 -88 -49 -201q0 -98 39 -181q11 -24 23 -36l-5 -41l-192 -156q-119 67 -165 223q-17 58 -17 147zM745 1257q0 89 35 177t88 156q98 124 231 181l115 -141l-2 -22q-58 -29 -101 -106 q-49 -88 -49 -201q0 -98 39 -181q11 -24 23 -36l-5 -41l-192 -156q-119 67 -165 223q-17 58 -17 147z" />
<glyph unicode="&#x201d;" horiz-adv-x="1247" d="M200 1027l2 22q58 29 101 106q49 88 49 201q0 98 -39 181q-11 24 -23 36l5 41l192 156q119 -67 165 -223q17 -58 17 -147t-35 -177t-88 -156q-98 -124 -231 -181zM745 1027l2 22q58 29 101 106q49 88 49 201q0 98 -39 181q-11 24 -23 36l5 41l192 156q119 -67 165 -223 q17 -58 17 -147t-35 -177t-88 -156q-98 -124 -231 -181z" />
<glyph unicode="&#x201e;" horiz-adv-x="1247" d="M14 -412l2 22q58 29 101 106q49 88 49 201q0 98 -39 181q-11 24 -23 36l5 41l192 156q119 -67 165 -223q17 -58 17 -147t-35 -177t-88 -156q-98 -124 -231 -181zM552 -412l2 22q58 29 101 106q49 88 49 201q0 98 -39 181q-11 24 -23 36l5 41l192 156q119 -67 165 -223 q17 -58 17 -147t-35 -177t-88 -156q-98 -124 -231 -181z" />
<glyph unicode="&#x2022;" horiz-adv-x="858" d="M233 669.5q0 58.5 19 104t53 82.5q76 83 179 83q75 0 126 -49q50 -49 50 -108.5t-17.5 -106t-50.5 -84t-79.5 -61t-94 -23.5t-79.5 14t-55 38q-51 52 -51 110.5z" />
<glyph unicode="&#x2026;" horiz-adv-x="1578" d="M30 110.5q0 54.5 14.5 93.5t41.5 68q60 66 152 66q124 0 152 -92q9 -27 9 -66.5t-15 -80t-43 -69.5q-58 -59 -143 -59t-126.5 42.5t-41.5 97zM556 110.5q0 54.5 14.5 93.5t41.5 68q60 66 152 66q124 0 152 -92q9 -27 9 -66.5t-15 -80t-43 -69.5q-58 -59 -143 -59 t-126.5 42.5t-41.5 97zM1082 110.5q0 54.5 14.5 93.5t41.5 68q60 66 152 66q124 0 152 -92q9 -27 9 -66.5t-15 -80t-43 -69.5q-58 -59 -143 -59t-126.5 42.5t-41.5 97z" />
<glyph unicode="&#x202f;" horiz-adv-x="402" />
<glyph unicode="&#x2039;" horiz-adv-x="1190" d="M174 530l32 190l742 396l58 -205l-430 -306l364 -301l-110 -172z" />
<glyph unicode="&#x203a;" horiz-adv-x="1190" d="M213 327l430 306l-364 301l110 172l656 -398l-32 -190l-742 -396z" />
<glyph unicode="&#x205f;" horiz-adv-x="503" />
<glyph unicode="&#x20ac;" horiz-adv-x="1389" d="M23 524l19 182h179q4 79 18 154h-171l19 182h203q90 233 278 368.5t427 135.5q145 0 255 -36l59 -18l-74 -269q-36 40 -162 62q-40 7 -82 7q-111 0 -195 -67.5t-138 -182.5h464l-19 -182h-504q-14 -67 -21 -154h505l-15 -182h-490q29 -308 265 -308q127 0 243 78 q34 23 64 46l70 -201q-93 -104 -296 -142q-69 -13 -177.5 -13t-208.5 45.5t-166 120.5q-122 141 -147 374h-202z" />
<glyph unicode="&#x2122;" horiz-adv-x="2120" d="M179 1360l28 170h666l-22 -170h-240l-94 -646l-191 -1l94 647h-241zM893 714l150 816h313l87 -396l25 -183l240 579h318l-37 -816h-194l41 541l17 185l-315 -734h-177l-121 549l-34 185l-112 -726h-201z" />
<glyph unicode="&#x25fc;" horiz-adv-x="1140" d="M0 0v1140h1140v-1140h-1140z" />
</font>
</defs>
</svg>
