<?xml version="1.0" standalone="no"?>
<!DOCTYPE svg PUBLIC "-//W3C//DTD SVG 1.1//EN" "http://www.w3.org/Graphics/SVG/1.1/DTD/svg11.dtd" >
<svg xmlns="http://www.w3.org/2000/svg">
<metadata></metadata>
<defs>
<font id="merriweather_sansextrabold" horiz-adv-x="0" >
<font-face units-per-em="2048" ascent="1638" descent="-410" />
<missing-glyph horiz-adv-x="678" />
<glyph unicode="&#xfb01;" horiz-adv-x="1571" d="M79 897v216l143 27v117q0 225 142 337q117 90 300 90q128 0 220 -23v-254q-47 25 -129.5 25t-121.5 -44.5t-39 -144.5v-103h247v-243h-247v-897h-372v897h-143zM1023 1471q0 84 66.5 145t156.5 61t147 -53t57 -138q0 -84 -65 -146q-65 -61 -156 -61q-90 0 -147 53 q-59 55 -59 139zM1040 0v1140h372v-1140h-372z" />
<glyph unicode="&#xfb02;" horiz-adv-x="1578" d="M79 897v216l143 27v117q0 225 142 337q117 90 300 90q128 0 220 -23v-254q-47 25 -129.5 25t-121.5 -44.5t-39 -144.5v-103h247v-243h-247v-897h-372v897h-143zM1044 0v1662h371v-1662h-371z" />
<glyph unicode="&#xfb03;" horiz-adv-x="2452" d="M79 897v216l143 27v117q0 225 142 337q117 90 300 90q128 0 220 -23v-254q-47 25 -129.5 25t-121.5 -44.5t-39 -144.5v-103h247v-243h-247v-897h-372v897h-143zM960 897v216l143 27v117q0 225 142 337q117 90 300 90q128 0 220 -23v-254q-47 25 -129.5 25t-121.5 -44.5 t-39 -144.5v-103h247v-243h-247v-897h-372v897h-143zM1904 1471q0 84 66.5 145t156.5 61t147 -53t57 -138q0 -84 -65 -146q-65 -61 -156 -61q-90 0 -147 53q-59 55 -59 139zM1921 0v1140h372v-1140h-372z" />
<glyph unicode="&#xfb04;" horiz-adv-x="2460" d="M79 897v216l143 27v117q0 225 142 337q117 90 300 90q128 0 220 -23v-254q-47 25 -129.5 25t-121.5 -44.5t-39 -144.5v-103h247v-243h-247v-897h-372v897h-143zM960 897v216l143 27v117q0 225 142 337q117 90 300 90q128 0 220 -23v-254q-47 25 -129.5 25t-121.5 -44.5 t-39 -144.5v-103h247v-243h-247v-897h-372v897h-143zM1925 0v1662h371v-1662h-371z" />
<glyph />
<glyph horiz-adv-x="682" />
<glyph />
<glyph />
<glyph />
<glyph />
<glyph />
<glyph />
<glyph />
<glyph unicode="&#x9;" />
<glyph unicode="&#xa;" />
<glyph />
<glyph />
<glyph />
<glyph />
<glyph />
<glyph />
<glyph />
<glyph />
<glyph />
<glyph />
<glyph />
<glyph />
<glyph unicode=" "  horiz-adv-x="678" />
<glyph unicode="&#x09;" horiz-adv-x="678" />
<glyph unicode="&#xa0;" horiz-adv-x="678" />
<glyph unicode="!" horiz-adv-x="669" d="M120 189q0 92 64 159q67 68 160 68t150 -60q54 -58 54 -150t-64 -160t-158 -68q-91 0 -148 60q-58 62 -58 151zM133 1780h407l-40 -1190h-314z" />
<glyph unicode="&#x22;" horiz-adv-x="1257" d="M198 1703h334l-41 -753h-251zM726 1703h334l-41 -753h-251z" />
<glyph unicode="#" horiz-adv-x="1709" d="M206 305v248h201l28 285h-188v237h210l29 298h302l-29 -298h263l28 298h299l-29 -298h191v-237h-214l-28 -285h198v-248h-222l-29 -305h-294l28 305h-267l-30 -305h-299l29 305h-177zM707 553h266l27 285h-265z" />
<glyph unicode="$" horiz-adv-x="1409" d="M205 1121q0 262 243 364q77 32 171 44l9 234h204l-9 -227q224 -13 354 -85l-59 -286q-79 62 -237 89q-50 8 -129.5 8t-130 -35t-50.5 -81.5t15 -74t48 -53.5q56 -45 177 -99.5t198.5 -100.5t131.5 -101q111 -113 111 -282q0 -194 -124 -311q-129 -121 -359 -137l-7 -212 h-205l8 216q-246 24 -349 87l47 296q108 -62 282 -88q60 -9 145 -9q181 0 181 129q0 67 -69 118q-41 29 -177 94t-201 109t-114 101q-105 124 -105 293z" />
<glyph unicode="%" horiz-adv-x="2287" d="M99 1057q0 219 139 351q130 124 319 124h6q205 0 315 -136q100 -125 100 -333q0 -218 -140 -351q-129 -123 -317 -123h-6q-203 0 -314 135q-102 125 -102 333zM382 1094q0 -82 10.5 -127t29.5 -77q41 -68 116 -68t115.5 62t40.5 144t-10.5 127.5t-29.5 77.5 q-41 67 -116 67t-115.5 -62t-40.5 -144zM727 0l556 1530h283l-557 -1530h-282zM1309 472q0 107 38 195.5t101 148.5q131 123 318 123h6q206 0 316 -135q100 -124 100 -333q0 -219 -140 -351q-129 -124 -318 -124q-209 0 -320 136q-101 126 -101 340zM1592 501.5 q0 -82.5 10.5 -127.5t29.5 -77q41 -67 116 -67t115 62t40 144t-10 127t-29 77q-41 68 -116 68t-115.5 -62t-40.5 -144.5z" />
<glyph unicode="&#x26;" horiz-adv-x="1540" d="M61 410q0 248 307 383q-131 189 -131 361q0 185 125 289q125 103 336 103q201 0 326 -108q122 -105 122 -266q0 -242 -198 -371q-59 -38 -124 -70q119 -163 264 -317q56 81 56 189q0 80 -8 116t-9 47h294q15 -68 15 -164q0 -228 -124 -363q78 -35 184 -35v-205 q-65 -15 -156 -15q-151 0 -278 67q-159 -67 -325.5 -67t-294 28.5t-212.5 83.5q-169 108 -169 314zM404 428q0 -196 294 -196q75 0 129 12q-164 168 -313 359q-110 -71 -110 -175zM560 1179q0 -49 7 -77t23 -56q24 -46 97 -136q156 100 156 259q0 93 -71 130q-27 14 -65 14 t-64.5 -11.5t-44.5 -31.5q-38 -42 -38 -91z" />
<glyph unicode="'" horiz-adv-x="730" d="M198 1703h334l-41 -753h-251z" />
<glyph unicode="(" horiz-adv-x="843" d="M99 704q0 164 26.5 297t69 244t95 199t104.5 153q94 116 178 170l190 -130q-111 -93 -212 -295q-138 -279 -138 -635q0 -348 122 -616q92 -205 228 -320l-190 -131q-147 95 -278 304q-115 184 -168 454q-27 142 -27 306z" />
<glyph unicode=")" horiz-adv-x="843" d="M74 -215q111 93 212 295q138 279 138 635q0 348 -122 616q-92 205 -228 320l190 131q147 -95 278 -304q115 -184 168 -454q27 -142 27 -306t-26.5 -297t-69 -244t-95 -199t-104.5 -153q-94 -116 -178 -170z" />
<glyph unicode="*" horiz-adv-x="1412" d="M133 1342l124 243l273 -189l118 -121q-1 5 -8 28.5t-15 50.5q-22 74 -23 83l-40 321h272l-27 -316l-44 -165q5 3 40 44q52 58 76 82l266 192l127 -242l-287 -134l-163 -45l165 -39l292 -125l-137 -251l-254 188l-123 120q1 -5 8 -28t15 -50t15.5 -51t8.5 -31l37 -323 h-271l29 321l43 163l-116 -127l-260 -193l-134 244l289 139l160 42q-5 1 -28 6.5t-51 11.5q-75 16 -83 20z" />
<glyph unicode="+" horiz-adv-x="1401" d="M188 640v271h218l160 -5l-6 203v200h279v-200l-6 -203l157 5h222v-271h-222l-157 5l6 -205v-193h-279v193l6 205l-160 -5h-218z" />
<glyph unicode="," horiz-adv-x="700" d="M151 75v107l263 136q79 -30 126 -136q41 -92 41 -185t-21.5 -173.5t-59.5 -147.5q-79 -144 -194 -188l-132 104v26q53 39 74 169q7 43 7 84.5t-10 75t-25 61.5q-33 61 -69 67z" />
<glyph unicode="-" horiz-adv-x="1358" d="M254 626v278h850v-278h-850z" />
<glyph unicode="." horiz-adv-x="669" d="M120 189q0 90 65 159q65 68 159 68q93 0 150 -60q54 -58 54 -150q0 -93 -63 -160q-65 -68 -158 -68q-92 0 -149 60q-58 62 -58 151z" />
<glyph unicode="/" horiz-adv-x="862" d="M8 -363l555 1962h291l-555 -1962h-291z" />
<glyph unicode="0" horiz-adv-x="1438" d="M114 666q0 116 46.5 235t128.5 201q169 169 446 169q415 0 539 -323q50 -132 50 -309q0 -301 -168 -479q-167 -176 -446 -176q-411 0 -543 336q-29 73 -41 151.5t-12 194.5zM485 651q0 -172 60.5 -293.5t174 -121.5t172.5 98t59 284q0 274 -126 370q-43 32 -103 32h-4 q-112 0 -173 -98q-60 -96 -60 -271z" />
<glyph unicode="1" horiz-adv-x="1058" d="M125 1060q137 33 331 136q83 44 129 82l185 -29l-3 -1249h-385v878q-82 -19 -227 -42z" />
<glyph unicode="2" horiz-adv-x="1418" d="M140 169q219 108 405 267q240 207 240 375q0 130 -97 173q-35 15 -86 15t-98.5 -10.5t-89.5 -27.5q-88 -35 -142 -87l-125 214q124 128 358 184q84 20 202.5 20t215.5 -34.5t157 -91.5q110 -104 110 -277q0 -260 -281 -478q-89 -69 -200 -135l553 38v-314h-1072z" />
<glyph unicode="3" horiz-adv-x="1201" d="M68 1128q48 52 188 100q156 52 283.5 52t217.5 -24.5t151 -71.5q127 -95 127 -264q0 -249 -251 -388q165 -22 254 -133q76 -94 76 -213.5t-48 -213t-136 -160.5q-187 -143 -489 -145q-149 0 -317 52l-1 243q134 -31 221 -31t154.5 16t116.5 47q103 67 103 187 q0 154 -126 197q-38 12 -69.5 12h-42.5l-136 -32l-50 229q142 26 220.5 68t109.5 89q32 51 32 115t-47.5 102t-132.5 38q-161 0 -302 -103z" />
<glyph unicode="4" horiz-adv-x="1452" d="M80 132l554 1210h77l290 -137l-419 -774l-99 -169h338l38 372h318v-372h222v-262h-222v-376h-356v376h-655z" />
<glyph unicode="5" horiz-adv-x="1320" d="M172 -351l1 254q42 -2 126.5 -2t186 24.5t171.5 68.5q142 88 142 235q0 94 -60.5 142t-181.5 48.5t-305 -64.5l-66 34l63 863h885l-32 -301h-587l-31 -307q126 40 242 40t199.5 -30t139.5 -87q114 -116 114 -324q0 -274 -231 -440q-233 -168 -627 -168q-93 0 -149 14z " />
<glyph unicode="6" horiz-adv-x="1456" d="M118 623q0 286 151 527q131 211 349 351q200 129 394 152l84 -219q-275 -69 -434 -296q-151 -214 -151 -464q0 -309 127 -404q45 -33 110 -33q111 0 166.5 68t55.5 192q0 203 -109 251q-32 14 -81 14t-118 -33l-68 192q48 69 197 105q53 12 132.5 12t158.5 -35t136 -97 q120 -131 120 -338q0 -253 -154 -410q-169 -174 -470 -174q-259 0 -427.5 180t-168.5 459z" />
<glyph unicode="7" horiz-adv-x="1334" d="M122 929v342h1039l81 -116l-592 -1549l-366 102q105 219 216.5 473.5t150.5 343.5t73 166q64 149 100 237z" />
<glyph unicode="8" horiz-adv-x="1402" d="M118 397q0 241 275 373q-227 156 -227 393q0 173 138 285q145 117 395 117t391 -103q135 -99 135 -260q0 -178 -138 -302q-48 -43 -116 -75q151 -84 210 -147q112 -121 112 -258q0 -201 -163 -320q-157 -116 -414 -116q-279 0 -439 112q-159 112 -159 301zM466 414 q0 -129 134 -172q46 -15 100 -15t92 11t66 32q61 46 61 117q0 109 -186 203q-54 28 -114 57q-153 -90 -153 -233zM509 1203.5q0 -51.5 19 -86.5t52 -65q55 -53 171 -114q149 74 149 241v8q0 67 -51 110t-145 43q-86 0 -142 -44q-53 -41 -53 -92.5z" />
<glyph unicode="9" horiz-adv-x="1455" d="M123 698q0 254 159 408q170 164 472 164q262 0 424 -177t162 -461q0 -290 -154 -536q-133 -212 -358 -357q-205 -132 -397 -155l-88 212q185 45 330 175q196 176 256 434q19 83 19 172t-13 170.5t-41 142.5q-60 126 -174.5 126t-172.5 -65t-58 -162t14 -151t39 -89 t58 -51.5t82 -16.5t121 24l65 -191q-49 -67 -195 -97q-54 -11 -134.5 -11t-159.5 37.5t-136 103.5q-120 139 -120 351z" />
<glyph unicode=":" horiz-adv-x="669" d="M120 189q0 90 65 159q65 68 159 68q93 0 150 -60q54 -58 54 -150q0 -93 -63 -160q-65 -68 -158 -68q-92 0 -149 60q-58 62 -58 151zM120 925q0 90 65 159q65 68 159 68q93 0 150 -60q54 -58 54 -150q0 -93 -63 -160q-65 -68 -158 -68q-92 0 -149 60q-58 62 -58 151z" />
<glyph unicode=";" horiz-adv-x="669" d="M120 925q0 90 65 159q65 68 159 68q93 0 150 -60q54 -58 54 -150q0 -93 -63 -160q-65 -68 -158 -68q-92 0 -149 60q-58 62 -58 151zM136 75v107l263 136q79 -30 126 -136q41 -92 41 -185t-21.5 -173.5t-59.5 -147.5q-79 -144 -194 -188l-132 104v26q53 39 74 169 q7 43 7 84.5t-10 75t-25 61.5q-33 61 -69 67z" />
<glyph unicode="&#x3c;" horiz-adv-x="1376" d="M211 699v154l944 503v-323l-513 -259l513 -227v-334z" />
<glyph unicode="=" horiz-adv-x="1430" d="M253 395v252h924v-252h-924zM253 904v251h924v-251h-924z" />
<glyph unicode="&#x3e;" horiz-adv-x="1375" d="M212 213l944 486v154l-944 503v-323l513 -259l-513 -227v-334z" />
<glyph unicode="?" horiz-adv-x="1063" d="M106 1516v268q64 41 230 57q51 5 148.5 5t206.5 -31q321 -91 321 -393q0 -195 -134 -317q-39 -35 -79 -66.5t-79 -62.5t-70 -67q-74 -85 -74 -201q0 -36 11 -76t26 -97h-284q-74 123 -74 252q0 151 113 261q32 31 65.5 60t66 57.5t58.5 60.5q56 71 56 153q0 185 -272 185 q-126 0 -236 -48zM284 178q0 86 64 151q63 65 153 65q136 0 183 -120q15 -37 15 -80q0 -87 -62 -151q-63 -65 -153 -65q-88 0 -144 57q-56 58 -56 143z" />
<glyph unicode="@" horiz-adv-x="2245" d="M143 434q0 161 40.5 309t114 271.5t176 221.5t226.5 166q253 141 555 141q369 0 596 -191q239 -202 239 -555q0 -388 -196 -607q-174 -195 -418 -195q-101 0 -154 43q-68 55 -60 207q-152 -250 -356 -250q-122 0 -210 111q-92 119 -92 314q0 251 149 444q102 133 271 188 q86 28 209 28t212 -55l197 31q-8 -36 -17.5 -84t-20.5 -103t-22.5 -114.5t-23.5 -118.5q-27 -132 -42 -203q-20 -93 -20 -143q0 -84 54 -84t111 37t103 109q105 163 105 419q0 405 -329 531q-129 50 -267 50t-248 -27.5t-208 -81.5t-180 -133t-141 -182q-127 -217 -127 -501 q0 -479 365 -636q143 -62 326 -62q243 0 400 79q41 21 73 39l46 -166q-213 -142 -539 -142q-385 0 -629 212q-170 147 -235 396q-33 126 -33 287zM886 453q0 -100 26.5 -150t65 -50t74.5 25.5t71 68.5t68 100t59 119q57 132 71 248q-43 47 -122.5 47t-132.5 -34t-93 -91 q-87 -122 -87 -283z" />
<glyph unicode="A" horiz-adv-x="1460" d="M-19 0l530 1532h434l534 -1532h-404l-84 284h-531l-80 -284h-399zM535 550h377l-141 477l-50 197l-51 -197z" />
<glyph unicode="B" horiz-adv-x="1462" d="M173 0v1523l185 -1l363 15q585 0 585 -392q0 -194 -128 -293q-43 -32 -100 -48q135 -16 220 -107q89 -94 89 -217.5t-30 -210.5t-103 -150t-194 -98t-299.5 -35t-395.5 14h-192zM551 258q38 -23 177.5 -23t204 52t64.5 171q0 202 -269 202q-141 0 -177 -8v-394zM551 903 q32 -8 120 -8t133.5 11t76.5 36q62 52 62 157t-67.5 143.5t-184.5 38.5t-140 -13v-365z" />
<glyph unicode="C" horiz-adv-x="1306" d="M85 758q0 373 227 583q212 197 552 197q175 0 326 -44q37 -10 72 -17l-50 -329q-128 88 -317 88q-181 0 -295 -118q-120 -123 -120 -337q0 -231 109 -364q114 -139 322 -139q140 0 275 65q36 17 55 33l1 -312q-140 -56 -223.5 -68t-150.5 -12q-372 0 -580 210 q-203 205 -203 564z" />
<glyph unicode="D" horiz-adv-x="1561" d="M173 0v1522h140l417 16q564 0 702 -426q45 -138 45 -323t-52 -337q-104 -305 -393 -414q-140 -54 -319 -54l-406 16h-134zM556 280q54 -15 154 -15t165 30t111 91q95 128 95 379q0 270 -91 387q-85 111 -266 111q-84 0 -168 -13v-970z" />
<glyph unicode="E" horiz-adv-x="1270" d="M173 0v1522h962v-284h-585v-322h451v-277h-451v-348h645v-291h-1022z" />
<glyph unicode="F" horiz-adv-x="1163" d="M173 0v1522h950v-284h-570v-363h433v-283h-433v-592h-380z" />
<glyph unicode="G" horiz-adv-x="1508" d="M85 753q0 527 389 707q169 78 399 78q184 0 351 -42q43 -10 86 -18l-10 -318q-160 80 -412 80q-197 0 -306 -122q-108 -122 -108 -338q0 -229 90 -366q44 -69 109 -107.5t178.5 -38.5t192.5 32v266l-217 16v272h565v-768q-42 -1 -99 -20.5t-97.5 -32.5t-93.5 -24 q-119 -25 -280.5 -25t-299.5 52t-235 150q-202 206 -202 567z" />
<glyph unicode="H" horiz-adv-x="1631" d="M173 0v1522h383v-617h522v617h380v-1522h-380v631h-522v-631h-383z" />
<glyph unicode="I" horiz-adv-x="754" d="M185 0v1522h384v-1522h-384z" />
<glyph unicode="J" horiz-adv-x="800" d="M-35 -141q90 37 132 75q103 97 127 262q13 97 13 412v914h384v-909l2 -236q0 -182 -17.5 -269.5t-52.5 -148t-82 -108.5t-103 -83q-157 -100 -306 -100h-14z" />
<glyph unicode="K" horiz-adv-x="1468" d="M173 0v1522h379v-641l475 641h413l-499 -656q89 -126 248 -395.5t212 -359.5l65 -111h-427q-13 20 -26.5 46.5t-61.5 117.5q-112 210 -261 433l-138 -165v-432h-379z" />
<glyph unicode="L" horiz-adv-x="1122" d="M173 0v1522h387v-1235h502v-287h-889z" />
<glyph unicode="M" horiz-adv-x="1982" d="M64 -1l176 1523h513l185 -781l69 -355l55 355l164 781h499l194 -1522h-366l-70 809l-23 438l-95 -450l-204 -806h-337l-222 806l-100 450l-26 -438l-60 -809z" />
<glyph unicode="N" horiz-adv-x="1631" d="M173 0v1522h356l519 -835l106 -222l-41 387v670h345v-1522h-383l-493 815l-111 230l47 -387v-658h-345z" />
<glyph unicode="O" horiz-adv-x="1603" d="M93 769q0 191 57.5 340.5t153.5 242.5q195 186 545 186q306 0 483 -202t177 -551q0 -405 -204 -611q-188 -190 -527 -190q-157 0 -282 51q-403 164 -403 734zM485 758q0 -348 178 -458q60 -37 140 -37q314 0 314 511q0 341 -166 444q-56 34 -128.5 34t-133.5 -24.5 t-106 -82.5q-98 -126 -98 -387z" />
<glyph unicode="P" horiz-adv-x="1392" d="M173 0v1522h148q105 0 209.5 8t230.5 8t234.5 -28t184.5 -92q156 -131 156 -417q0 -412 -356 -525q-117 -37 -247 -37t-178 2v-441h-382zM555 720q85 -8 147 -8t108 15.5t80 50.5q73 74 73 225q0 198 -143 252q-46 17 -119.5 17t-145.5 -11v-541z" />
<glyph unicode="Q" horiz-adv-x="1603" d="M93 745q0 404 211 607q195 186 545 186q306 0 483 -202t177 -551q0 -500 -305 -691q-93 -59 -207 -86q59 -77 236 -87q54 -3 139 -3t172 29v-256q-92 -46 -229 -46t-236 18t-175 59q-152 81 -209 266q-289 26 -449 236q-153 201 -153 521zM485 758q0 -348 178 -458 q60 -37 140 -37q314 0 314 511q0 341 -166 444q-56 34 -128.5 34t-133.5 -24.5t-106 -82.5q-98 -126 -98 -387z" />
<glyph unicode="R" horiz-adv-x="1470" d="M173 0v1522h131q40 0 86 2.5t102 5.5q147 8 242 8t163.5 -9.5t131.5 -31t117.5 -57.5t95.5 -90q87 -117 87 -295q0 -328 -242 -438q70 -55 148 -223q32 -69 63.5 -143t70.5 -141l63 -110h-420q-18 24 -51.5 100t-57.5 151t-50 139t-58 106.5t-78 45.5q-64 -4 -164 -4 v-538h-380zM553 802q53 -7 110 -7h77q110 0 170 74q53 66 53 179q0 221 -248 221q-99 0 -162 -18v-449z" />
<glyph unicode="S" horiz-adv-x="1229" d="M119 1121q0 202 151 313q142 104 392 104q277 0 429 -87l-59 -286q-79 62 -237 89q-50 8 -129.5 8t-130 -35t-50.5 -81.5t15 -74t48 -53.5q56 -45 177 -99.5t198.5 -100.5t131.5 -101q111 -113 111 -282q0 -208 -144 -328q-146 -123 -411 -123q-229 0 -411 64 q-48 16 -70 30l47 296q108 -62 282 -88q60 -9 145 -9q181 0 181 129q0 67 -69 118q-41 29 -177 94t-201 109t-114 101q-105 124 -105 293z" />
<glyph unicode="T" horiz-adv-x="1253" d="M28 1228v294h1197v-294h-406v-1228h-384v1228h-407z" />
<glyph unicode="U" horiz-adv-x="1545" d="M138 638l4 884h378l-3 -837v-65.5t16 -134t49 -121.5q57 -80 193 -80q133 0 193 84q64 90 64 317v837h376v-890q0 -648 -628 -648q-500 0 -608 386q-34 121 -34 268z" />
<glyph unicode="V" horiz-adv-x="1410" d="M-12 1522h406l243 -769l76 -296l76 296l227 769h406l-549 -1526h-332z" />
<glyph unicode="W" horiz-adv-x="1998" d="M-13 1522h382l159 -850l47 -363l55 363l201 850h347l207 -850l56 -343l45 343l158 850h367l-401 -1532h-375l-195 795l-49 318l-43 -319l-193 -794h-368z" />
<glyph unicode="X" horiz-adv-x="1395" d="M14 0l449 779l-437 743l419 1l209 -383l60 -116l256 498h400l-442 -766l456 -756h-422l-213 392l-64 131l-63 -131l-206 -392h-402z" />
<glyph unicode="Y" horiz-adv-x="1289" d="M-53 1522h417l226 -492l64 -170l54 170l229 492h405l-505 -988v-534h-389v536z" />
<glyph unicode="Z" horiz-adv-x="1302" d="M36 84l625 1062l67 98h-620v278h1095l41 -81l-613 -1052l-74 -105h649v-284h-1128z" />
<glyph unicode="[" horiz-adv-x="814" d="M128 68v1418q0 149 44 206t158 57q130 0 230 -10l140 -14v-182h-251v-1555l251 -1v-174q-224 -28 -326 -28t-140.5 16.5t-61.5 50.5q-44 64 -44 216z" />
<glyph unicode="\" horiz-adv-x="862" d="M0 1599l555 -1962h291l-555 1962h-291z" />
<glyph unicode="]" horiz-adv-x="814" d="M107 -13v-174q224 -28 326 -28t140.5 16.5t61.5 50.5q44 64 44 216v1418q0 149 -44 206t-158 57q-130 0 -230 -10l-140 -14v-182h251v-1555z" />
<glyph unicode="^" horiz-adv-x="1390" d="M138 490l437 1041h241l436 -1041h-325l-233 585l-226 -585h-330z" />
<glyph unicode="_" horiz-adv-x="1700" d="M-36 -233h1772v-175h-1772v175z" />
<glyph unicode="`" horiz-adv-x="700" d="M65 1636l244 189q106 -178 257 -355q47 -55 86 -90l-169 -158q-77 37 -217 166q-155 141 -201 248z" />
<glyph unicode="a" horiz-adv-x="1263" d="M85 348q0 101 55 174.5t128.5 105t133 45.5t120.5 21q103 12 234 12v69q0 75 -40 99q-42 24 -168 24q-102 0 -259 -48q-47 -15 -85 -33l-75 218q123 75 349 113q76 12 181.5 12t199.5 -23t153 -75q112 -97 112 -333v-745h-232q-64 0 -83 12q-34 23 -34 92v8 q-128 -112 -318 -112q-168 0 -271 102q-101 102 -101 262zM467 362q0 -36 12 -65t33 -48q39 -37 100 -37q65 0 121 32q15 8 23 16v268q-125 0 -200 -35q-89 -33 -89 -131z" />
<glyph unicode="b" horiz-adv-x="1381" d="M159 64v1597h371v-411l-8 -209q127 115 322 115q194 0 317 -134q135 -146 135 -410q0 -289 -165 -462q-164 -171 -439 -171q-217 0 -436 53q-82 19 -97 32zM530 262q30 -34 156 -34q98 0 159 94q64 98 64 268q0 234 -115 278q-35 13 -70.5 13t-63.5 -5.5t-52 -14.5 q-49 -18 -78 -40v-559z" />
<glyph unicode="c" horiz-adv-x="1048" d="M85 559q0 265 140 423q153 174 439 174q165 0 272 -37q29 -10 43 -20l-42 -278q-82 47 -223 47q-165 0 -230 -148q-24 -57 -24 -142.5t19 -143.5t54 -96q66 -70 197 -70t220 41l45 -209q-79 -79 -249 -107q-54 -9 -109 -9q-272 0 -417 164q-135 151 -135 411z" />
<glyph unicode="d" horiz-adv-x="1381" d="M85 531q0 288 159 457q159 168 422 168q104 0 188 -28l-3 122v412h370v-1678h-284q-55 0 -55 54v80q-134 -134 -345 -134q-194 0 -317 135q-135 148 -135 412zM473 549q0 -226 111 -273q36 -15 80 -15q109 0 187 52v555q-43 32 -124 32t-121.5 -22t-69.5 -66 q-63 -92 -63 -263z" />
<glyph unicode="e" horiz-adv-x="1221" d="M85 575q0 255 150 415q155 166 422 166q329 0 437 -236q42 -90 42 -219v-10q0 -122 -12 -208h-669q22 -237 285 -237q131 0 250 36q35 11 56 22l57 -197q-99 -81 -305 -113q-69 -10 -176 -10t-213 40.5t-178 116.5q-146 154 -146 434zM458 668h335q1 22 1 42 q0 94 -30 150.5t-115 56.5q-124 0 -168 -131q-16 -47 -23 -118z" />
<glyph unicode="f" horiz-adv-x="881" d="M79 897v216l143 27v117q0 225 142 337q117 90 300 90q128 0 220 -23v-254q-47 25 -129.5 25t-121.5 -44.5t-39 -144.5v-103h247v-243h-247v-897h-372v897h-143z" />
<glyph unicode="g" horiz-adv-x="1361" d="M67 -172.5q0 76.5 43 140.5t128 102q-92 51 -92 166q0 107 98 186q35 28 88 51q-228 92 -228 312q0 276 302 347q98 23 224 23q249 0 386 -84q83 69 194 69h128v-255h-184q11 -46 11 -113t-31.5 -135t-96.5 -115q-135 -99 -407 -99q-60 0 -114 6q-36 -32 -36 -77 t32 -61.5t113 -16.5h226q247 0 359 -105q92 -87 92 -241q0 -214 -202 -336q-180 -108 -434 -108q-452 0 -564 204q-35 63 -35 139.5zM439 -104q0 -144 117 -193q45 -19 109 -19t112 9t83 29q74 44 74 131q0 78 -31 105q-59 53 -186 53h-243q-35 -50 -35 -115zM459 773 q0 -66 43 -111t129.5 -45t118.5 27q58 48 58 143q0 177 -171 177q-130 0 -165 -91q-13 -34 -13 -100z" />
<glyph unicode="h" horiz-adv-x="1380" d="M159 0v1662h371v-428l-18 -213q103 88 250 123q57 14 120 14q176 0 262 -107t86 -336v-715h-371v652q0 181 -82 207q-25 8 -43 8h-28.5t-33.5 -4t-48 -13q-56 -19 -94 -57v-793h-371z" />
<glyph unicode="i" horiz-adv-x="690" d="M142 1471q0 84 66.5 145t156.5 61t147 -53t57 -138q0 -84 -65 -146q-65 -61 -156 -61q-90 0 -147 53q-59 55 -59 139zM159 0v1140h372v-1140h-372z" />
<glyph unicode="j" horiz-adv-x="677" d="M-104 -247q33 -22 95 -22t90 13t45 44q33 62 33 214v1138h372v-1058q0 -466 -256 -560q-81 -29 -191 -29t-188 26v234zM136 1471q0 84 66.5 145t156.5 61t147 -53t57 -138q0 -84 -65 -146q-65 -61 -156 -61q-90 0 -147 53q-59 55 -59 139z" />
<glyph unicode="k" horiz-adv-x="1287" d="M159 0v1661h371v-629l-12 -312l340 420h421l-405 -441l432 -699h-411l-260 440l-108 -117l3 -134v-189h-371z" />
<glyph unicode="l" horiz-adv-x="697" d="M163 0v1662h371v-1662h-371z" />
<glyph unicode="m" horiz-adv-x="2065" d="M163 0v1140h338l9 -122q107 89 262 126q59 14 122 14q197 0 273 -132q167 132 381 132q182 0 270 -94q97 -105 97 -345v-719h-371v653q0 124 -23.5 159.5t-50 45t-46.5 9.5h-24q-92 0 -176 -73q2 -34 2 -73v-721h-368v652q0 124 -23.5 159.5t-50 45.5t-46 10h-31 t-35.5 -5t-48 -14q-53 -19 -91 -55v-793h-370z" />
<glyph unicode="n" horiz-adv-x="1380" d="M163 0v1140h338l9 -122q107 90 268 127q57 13 126.5 13t132.5 -21.5t107 -73.5q86 -103 86 -345v-718h-370v652q0 124 -32 171q-30 44 -106 44h-25.5t-74 -19t-89.5 -55v-793h-370z" />
<glyph unicode="o" horiz-adv-x="1330" d="M86 615q0 110 45.5 217.5t123.5 179.5q158 144 421 144q390 0 517 -306q51 -123 51 -290q0 -279 -168 -432q-158 -144 -421 -144q-390 0 -517 306q-28 67 -40 141t-12 184zM471 582q0 -343 192 -343q107 0 153 81q43 75 43 244q0 335 -190 335q-157 0 -188 -180 q-10 -59 -10 -137z" />
<glyph unicode="p" horiz-adv-x="1384" d="M159 -506v1646h350v-111q134 127 335 127q196 0 319 -134q136 -148 136 -410q0 -288 -161 -458q-77 -82 -184.5 -126t-225.5 -44t-202 28l4 -151v-367h-371zM530 275q43 -41 157 -41q100 0 159 91q63 95 63 265q0 229 -111 276q-36 15 -71.5 15t-63 -5t-51.5 -14 q-53 -18 -82 -41v-546z" />
<glyph unicode="q" horiz-adv-x="1382" d="M85 531q0 287 161 457q158 168 422 168q152 0 287 -52l268 36v-1646h-370v367l5 234q-123 -111 -319 -111q-195 0 -318 135q-136 149 -136 412zM475 549q0 -226 111 -273q36 -15 71.5 -15t62 4.5t51.5 11.5q51 14 82 37v554q-43 32 -124 32t-121.5 -22t-69.5 -66 q-63 -92 -63 -263z" />
<glyph unicode="r" horiz-adv-x="966" d="M153 0v1140h325l16 -183q58 139 218 186q52 15 113 15t80 -14v-365q-47 27 -122 27q-163 0 -259 -108v-698h-371z" />
<glyph unicode="s" horiz-adv-x="1084" d="M104 824q0 159 140 248q129 84 334 84q240 0 367 -70l-33 -260q-66 53 -192 78q-42 9 -110 9q-146 0 -148 -78q0 -44 50 -75q46 -28 154.5 -62.5t167.5 -66t98 -73.5q79 -82 79 -212q0 -176 -131 -270q-128 -93 -350 -93q-198 0 -356 61q-43 17 -67 32l36 256 q64 -54 225 -89q55 -12 129 -12q148 0 148 83q0 61 -143 114q-46 17 -114.5 39.5t-124.5 57.5t-91 79q-68 85 -68 220z" />
<glyph unicode="t" horiz-adv-x="926" d="M57 897v196q129 38 157 64.5t38.5 47.5t20 44.5t20 49t21 52t20.5 49.5h225v-260h296v-243h-296v-406q0 -152 28 -195q15 -23 40.5 -29t54 -6t52 3.5t46.5 9.5q54 15 78 32l44 -206q-75 -71 -258 -105q-60 -11 -137 -11t-140.5 23t-102.5 69q-75 88 -75 279v542h-132z " />
<glyph unicode="u" horiz-adv-x="1362" d="M145 470v670h371v-679q0 -125 37 -170q34 -41 114 -41q71 0 135 35q17 9 27 18v837h371v-1156h-268q-35 0 -52 10.5t-17 47.5v48q-93 -71 -247 -98q-45 -8 -85 -8q-231 0 -318 138q-68 106 -68 348z" />
<glyph unicode="v" horiz-adv-x="1203" d="M-5 1140h397l147 -497l72 -291l67 291l142 497h388l-427 -1156h-354z" />
<glyph unicode="w" horiz-adv-x="1783" d="M-2 1140h361l117 -461l61 -299l69 299l135 461h333l134 -461l65 -299l60 300l108 460h344l-359 -1156h-325l-166 561l-43 214l-44 -214l-160 -561h-335z" />
<glyph unicode="x" horiz-adv-x="1238" d="M6 0l401 574l-399 566h419l158 -247l45 -76l40 76l150 247h413l-404 -558l412 -582h-422l-205 328l-25 -49l-158 -279h-425z" />
<glyph unicode="y" horiz-adv-x="1208" d="M-4 1140h391l164 -600l75 -313l196 913h388l-359 -1167q-111 -354 -364 -448q-76 -32 -197 -32q-53 0 -109 8.5t-60 11.5v284q24 -9 67.5 -15t69 -6t68 5.5t81.5 28.5q88 50 124 190h-142z" />
<glyph unicode="z" horiz-adv-x="1110" d="M52 83l518 805h-450l2 252h903l35 -95l-447 -693l-66 -92h492v-260h-945z" />
<glyph unicode="{" horiz-adv-x="998" d="M69 676v202q159 17 233 83q26 24 26 56v469q0 212 132 260q44 15 140 15t288 -24v-187h-247v-541q0 -93 -77 -147q-70 -51 -176 -86q158 -55 205.5 -108t47.5 -121v-559h247v-174q-124 -35 -326 -35q-116 0 -175 66.5t-59 214.5v469q0 56 -92 101q-74 36 -167 46z" />
<glyph unicode="|" horiz-adv-x="862" d="M287 -186v1966h288v-1966h-288z" />
<glyph unicode="}" horiz-adv-x="998" d="M104 -12v-174q124 -35 326 -35q116 0 175 66.5t59 214.5v469q0 56 92 101q74 36 167 46v202q-159 17 -233 83q-26 24 -26 56v469q0 212 -132 260q-44 15 -140 15t-288 -24v-187h247v-541q0 -93 77 -147q70 -51 176 -86q-158 -55 -205.5 -108t-47.5 -121v-559h-247z" />
<glyph unicode="~" horiz-adv-x="1446" d="M190 834q20 70 112 145q111 90 233 90q120 0 223 -78q66 -49 102 -63.5t72 -14.5q99 0 197 104l127 -162q-19 -73 -110 -142q-107 -81 -230 -81q-116 0 -212 79q-63 51 -99 65t-74 14t-67 -10t-52 -26q-27 -17 -78 -68z" />
<glyph />
<glyph unicode="&#xa1;" horiz-adv-x="669" d="M113 1138q0 92 64 160t158 68q91 0 148 -60q58 -62 58 -151q0 -92 -64 -159q-67 -68 -160 -68t-150 60q-54 58 -54 150zM121 -436l40 1190h314l53 -1190h-407z" />
<glyph unicode="&#xa2;" horiz-adv-x="1200" d="M136 559q0 360 248 513q84 53 199 73l6 232h185l-5 -223q199 -8 261 -55l-42 -278q-82 47 -223 47q-165 0 -229 -148q-25 -57 -25 -142.5t19 -143.5t54 -96q66 -70 197 -70t220 41l45 -209q-96 -96 -305 -113l-4 -203h-186l5 211q-207 37 -317 193q-103 147 -103 371z " />
<glyph unicode="&#xa3;" horiz-adv-x="1616" d="M103 112q0 56 24 90t62 58q76 47 180 51q35 32 35 239v139h-175v202h175v136q0 229 146 367q152 144 424 144q224 0 388 -103l-146 -271q-60 51 -150 73q-33 8 -75 8t-82 -8.5t-69 -37.5q-62 -62 -62 -235v-73h292v-202h-292v-116q0 -216 -99 -299q35 -8 68 -17.5 t67 -16.5q79 -18 169 -18t143 39.5t53 105.5q0 69 -44 119q-12 13 -23 20l262 124q153 -96 153 -276q0 -262 -263 -342q-91 -28 -209 -28t-204.5 16t-154.5 35t-121 35t-98 17q-59 -59 -153 -86q-31 -9 -59.5 -9t-56.5 6.5t-52 21.5q-53 36 -53 92z" />
<glyph unicode="&#xa4;" horiz-adv-x="1565" d="M213 319l190 194q-78 116 -78 258t77 260l-187 194l148 160l199 -207q103 57 219 57q117 0 223 -58l217 219l150 -161l-207 -209q75 -116 75 -256t-78 -256l190 -196l-148 -158l-203 207q-106 -55 -222 -55t-215 55l-200 -205zM579 773q0 -85 59 -145q59 -62 145 -62 t144 62q57 60 57 145q0 86 -57 145q-59 61 -144 61q-86 0 -145 -61q-59 -60 -59 -145z" />
<glyph unicode="&#xa5;" horiz-adv-x="1579" d="M130 1522h397l200 -365l74 -165l74 164l204 366h392l-424 -671h258v-209h-344v-182h344v-209h-344v-251h-343v251h-354v209h354v182h-354v209h290z" />
<glyph unicode="&#xa6;" horiz-adv-x="862" d="M287 -186v791h288v-791h-288zM287 973v807h288v-807h-288z" />
<glyph unicode="&#xa7;" horiz-adv-x="1404" d="M176 752q0 174 188 311q-124 108 -124 263q0 170 150 264q131 83 329 83q249 0 378 -73l-50 -267q-111 83 -288 83t-177 -104q0 -55 102 -108q46 -23 104.5 -47.5t120 -53t120 -64.5t104.5 -83q102 -106 102 -259.5t-144 -286.5q87 -94 87 -230q0 -185 -154 -285 q-136 -88 -337 -88q-204 0 -357 61q-41 16 -65 32l50 267q81 -64 223 -89q54 -10 104.5 -10t83.5 6.5t58 19.5q52 28 52 84q0 31 -28.5 54.5t-75 45t-105.5 42.5t-121 47t-121 59.5t-105 79.5q-104 101 -104 246zM477 834q0 -46 18.5 -77.5t51 -56.5t75.5 -45.5t92 -40 t100.5 -39.5t101.5 -44q27 63 27 114t-37.5 95.5t-97 80.5t-133.5 68t-147 69q-51 -78 -51 -124z" />
<glyph unicode="&#xa8;" horiz-adv-x="1034" d="M62 1471q0 84 61 143q62 61 145 61q132 0 174 -112q13 -35 13 -77q0 -84 -59 -144q-59 -61 -144 -61q-43 0 -78 14t-60 39q-52 54 -52 137zM580 1471q0 85 60 143q62 61 146 61q85 0 136 -53q50 -51 50 -136q0 -84 -58 -144q-60 -61 -144 -61q-43 0 -78 14t-60 39 q-52 54 -52 137z" />
<glyph unicode="&#xa9;" horiz-adv-x="2091" d="M175 962q0 122 30.5 234.5t87 209.5t135.5 176.5t176 136.5q201 119 441 119q239 0 442 -119q303 -178 398 -523q31 -112 31 -233.5t-31 -234t-87 -210t-135 -177.5t-176 -137q-204 -120 -442 -120t-441 120q-196 116 -312 314q-117 203 -117 444zM317 962 q0 -103 25 -198.5t71 -179t111 -152t146 -116.5q171 -103 375 -103t375 103q162 97 257 268q96 175 96 379q0 311 -207 529q-131 139 -322 193q-94 27 -199 27q-204 0 -375 -102q-162 -97 -257 -269q-96 -173 -96 -379zM599 954v7q0 217 125 350q134 144 370 144 q113 0 213 -37q26 -9 41 -18l-37 -205q-80 55 -213 55q-109 0 -178 -71q-70 -72 -70 -187v-45t18 -98t52 -94q64 -71 190.5 -71t213.5 63l44 -173q-80 -69 -220 -94q-48 -9 -124.5 -9t-159.5 39t-142 106q-123 138 -123 338z" />
<glyph unicode="&#xaa;" horiz-adv-x="1079" d="M112 946q0 144 120 228q86 60 213.5 79t219.5 19v37q0 65 -36 88q-35 22 -98.5 22t-109.5 -7t-91 -18q-101 -27 -134 -50l-57 175q33 30 126 58q173 52 282.5 52t187 -16.5t128.5 -54.5q102 -74 102 -247v-641h-168q-71 0 -87 7q-33 14 -33 69v14q-47 -55 -179 -86 q-42 -10 -99 -10t-112.5 20t-94.5 57q-80 76 -80 205zM406 968q0 -44 25 -65q43 -36 111 -36t123 38v215q-130 0 -193 -34q-66 -40 -66 -118z" />
<glyph unicode="&#xab;" horiz-adv-x="2028" d="M221 473v284l664 417l86 -253l-396 -306l396 -306l-86 -253zM1038 473v284l664 417l86 -253l-396 -306l396 -306l-86 -253z" />
<glyph unicode="&#xac;" horiz-adv-x="1478" d="M244 604v248h990v-553h-272v305h-718z" />
<glyph unicode="&#xad;" horiz-adv-x="1358" d="M254 626v278h850v-278h-850z" />
<glyph unicode="&#xae;" horiz-adv-x="2091" d="M171 962q0 121 31 233.5t87.5 209.5t136 177t176.5 137q204 119 443 119q240 0 443 -119q196 -115 313 -314q119 -203 119 -443q0 -241 -119 -444q-116 -199 -313 -315q-204 -120 -443 -120q-237 0 -443 120q-197 116 -312 315q-119 204 -119 444zM313 962 q0 -312 210 -530q211 -219 522 -219t522 219q133 139 185 330q25 96 25 199.5t-25.5 199t-72 179t-112.5 151.5t-147 117q-170 102 -375 102q-309 0 -522 -219q-133 -137 -185 -331q-25 -95 -25 -198zM700 486v963h97l264 6q178 0 275 -79q92 -73 92 -197q0 -263 -194 -319 q80 -46 152 -199q49 -102 106 -174h-255q-16 17 -25.5 38t-24 49.5t-30 67.5t-35.5 77q-46 90 -106 116l-42 -1h-49v-348h-225zM925 998q31 -7 120 -7q157 0 157 159q0 140 -161 140q-83 0 -116 -11v-281z" />
<glyph unicode="&#xaf;" horiz-adv-x="725" d="M53 1404v238h619v-238h-619z" />
<glyph unicode="&#xb0;" horiz-adv-x="977" d="M112 1278q0 158 107 264q107 105 269 105q163 0 270 -107t107 -262q0 -160 -106 -264q-107 -106 -269 -106q-82 0 -150.5 28.5t-119.5 78.5q-108 107 -108 263zM324 1278.5q0 -38.5 13.5 -70t36 -54t52 -35t63 -12.5t63.5 12t52 35q49 48 49 124q0 74 -49 124 q-47 46 -116 46q-110 0 -151 -100q-13 -31 -13 -69.5z" />
<glyph unicode="&#xb1;" horiz-adv-x="1401" d="M188 640v271h218l160 -5l-6 203v200h279v-200l-6 -203l157 5h222v-271h-222l-157 5l6 -205v-193h-279v193l6 205l-160 -5h-218zM233 0v233h921v-233h-921z" />
<glyph unicode="&#xb2;" horiz-adv-x="1252" d="M133 1523q97 137 309 192q77 20 180 20t183 -29t129 -75q95 -88 95 -214q0 -271 -402 -499l454 24v-262h-875l-40 170q163 81 314 209q197 167 197 297q0 141 -150 141t-263 -146z" />
<glyph unicode="&#xb3;" horiz-adv-x="1262" d="M229 1614q86 73 278 104q58 10 138.5 10t158 -21t126.5 -57q97 -69 97 -180q0 -81 -40.5 -146t-140.5 -117q172 -27 223 -159q16 -42 16 -104t-30 -128t-91 -115q-132 -105 -381 -105q-145 0 -259 34q-32 10 -58 18l-1 210q152 -38 272 -37.5t174 39.5t54 98 q0 91 -145 118l-178 -28l-23 208q107 10 169 28q137 40 137 130.5t-164 92.5q-90 0 -196 -45q-36 -16 -67 -37z" />
<glyph unicode="&#xb4;" horiz-adv-x="700" d="M37 1396q185 185 339 429l243 -189q-58 -137 -277 -310q-78 -61 -132 -88z" />
<glyph unicode="&#xb5;" horiz-adv-x="1407" d="M150 -371v1511h370v-650q0 -123 40 -178.5t132 -55.5t150 54v830h370v-825q0 -76 49 -76q41 0 85 27l31 -179q-17 -28 -69 -53q-108 -52 -212 -52q-168 0 -183 138q-71 -136 -249 -136q-141 0 -208 60l29 -415h-335z" />
<glyph unicode="&#xb6;" horiz-adv-x="1439" d="M48 1240q0 117 36 203t110 145q154 123 464 123l592 -20v-1691h-284l-1 1496h-200v-1496h-283v777q-308 0 -402 257q-32 89 -32 206z" />
<glyph unicode="&#xb7;" horiz-adv-x="669" d="M120 779q0 90 65 159q65 68 159 68q93 0 150 -60q54 -58 54 -150q0 -93 -63 -160q-65 -68 -158 -68q-92 0 -149 60q-58 62 -58 151z" />
<glyph unicode="&#xb8;" horiz-adv-x="529" d="M29 -436l23 181q23 -14 73 -14t83 37q35 39 35 121t-37 141l161 4l52 -4q66 -58 66 -246q-2 -123 -79 -188q-70 -60 -186 -60q-82 0 -131.5 11t-59.5 17z" />
<glyph unicode="&#xb9;" horiz-adv-x="1081" d="M165 1530q165 48 350 159q25 15 37 25l174 -25v-1009h-333v696q-78 -25 -188 -43z" />
<glyph unicode="&#xba;" horiz-adv-x="1077" d="M65 1153q0 242 160 371q133 108 329 108q214 0 334 -138q111 -128 111 -341q0 -251 -149 -380q-126 -110 -332 -110q-101 0 -188 35q-175 71 -236 258q-29 89 -29 197zM370 1160q0 -198 98 -256q30 -19 51.5 -19h23.5q152 2 152 252q0 127 -38 199.5t-110 72.5 q-177 0 -177 -249z" />
<glyph unicode="&#xbb;" horiz-adv-x="2028" d="M234 309l86 -253l664 417v284l-664 417l-86 -253l396 -306zM1050 309l86 -253l664 417v284l-664 417l-86 -253l396 -306z" />
<glyph unicode="&#xbc;" horiz-adv-x="2583" d="M203 1530q165 48 350 159q25 15 37 25l174 -25v-1009h-333v696q-78 -25 -188 -43zM773 0l539 1530h266l-542 -1530h-263zM1369 282l473 909h69l240 -103l-379 -610l-43 -75h265l28 272h270v-272h152v-215h-152v-265h-300l1 265h-571z" />
<glyph unicode="&#xbd;" horiz-adv-x="2583" d="M204 1530q165 48 350 159q25 15 37 25l174 -25v-1009h-333v696q-78 -25 -188 -43zM773 0l539 1530h266l-542 -1530h-263zM1477 834q97 137 309 192q77 20 180 20t183 -29t129 -75q95 -88 95 -214q0 -271 -402 -499l454 24v-262h-875l-40 170q163 81 314 209 q197 167 197 297q0 141 -150 141t-263 -146z" />
<glyph unicode="&#xbe;" horiz-adv-x="2583" d="M108 1614q86 73 278 104q58 10 138.5 10t158 -21t126.5 -57q97 -69 97 -180q0 -81 -40.5 -146t-140.5 -117q172 -27 223 -159q16 -42 16 -104t-30 -128t-91 -115q-132 -105 -381 -105q-145 0 -259 34q-32 10 -58 18l-1 210q152 -38 272 -37.5t174 39.5t54 98 q0 91 -145 118l-178 -28l-23 208q107 10 169 28q137 40 137 130.5t-164 92.5q-90 0 -196 -45q-36 -16 -67 -37zM773 0l539 1530h266l-542 -1530h-263zM1369 282l473 909h69l240 -103l-379 -610l-43 -75h265l28 272h270v-272h152v-215h-152v-265h-300l1 265h-571z" />
<glyph unicode="&#xbf;" horiz-adv-x="1063" d="M45 102q0 195 134 317q39 35 79 66.5t79 62.5t70 67q74 85 74 201q0 36 -11 76t-26 97h284q74 -123 74 -252q0 -151 -113 -261q-32 -31 -65.5 -60t-66 -57.5t-58.5 -60.5q-56 -71 -56 -153q0 -185 272 -185q126 0 236 48v-268q-64 -41 -230 -57q-51 -5 -148.5 -5 t-206.5 31q-321 91 -321 393zM358 1330q0 87 62 151q63 65 153 65q88 0 144 -57q56 -58 56 -143q0 -86 -64 -151q-63 -65 -153 -65q-136 0 -183 120q-15 37 -15 80z" />
<glyph unicode="&#xc0;" horiz-adv-x="1460" d="M-19 0l530 1532h434l534 -1532h-404l-84 284h-531l-80 -284h-399zM357 1858l262 130q28 -79 229 -290q21 -22 31 -32l-173 -132q-64 21 -176 126q-113 107 -173 198zM535 550h377l-141 477l-50 197l-51 -197z" />
<glyph unicode="&#xc1;" horiz-adv-x="1460" d="M-19 0l530 1532h434l534 -1532h-404l-84 284h-531l-80 -284h-399zM535 550h377l-141 477l-50 197l-51 -197zM586 1666q162 162 234 274q19 28 26 48l262 -130q-91 -134 -238 -255q-66 -55 -111 -69z" />
<glyph unicode="&#xc2;" horiz-adv-x="1460" d="M-19 0l530 1532h434l534 -1532h-404l-84 284h-531l-80 -284h-399zM330 1656l284 308h234l285 -306l-178 -116l-224 193l-223 -193zM535 550h377l-141 477l-50 197l-51 -197z" />
<glyph unicode="&#xc3;" horiz-adv-x="1460" d="M-19 0l530 1532h434l534 -1532h-404l-84 284h-531l-80 -284h-399zM283 1731q27 95 104 159q89 73 204 73q81 0 122 -24.5t60.5 -41t37.5 -31.5q42 -34 77 -34t59 10t45 26q40 29 68 69l127 -136q-26 -96 -102 -161q-85 -75 -198 -75q-77 0 -118.5 25t-61.5 42t-40 32 q-47 35 -82 35t-58 -9.5t-44 -23.5q-37 -27 -67 -67zM535 550h377l-141 477l-50 197l-51 -197z" />
<glyph unicode="&#xc4;" horiz-adv-x="1460" d="M-19 0l530 1532h434l534 -1532h-404l-84 284h-531l-80 -284h-399zM265 1766q0 81 61 140q60 58 147 58t137.5 -50t50.5 -133q0 -84 -59 -141q-60 -58 -146 -58q-85 0 -138 51t-53 133zM535 550h377l-141 477l-50 197l-51 -197zM806 1766q0 81 61 140q60 58 147.5 58 t137.5 -50t50 -133q0 -84 -59 -141q-60 -58 -146 -58q-85 0 -138 51t-53 133z" />
<glyph unicode="&#xc5;" horiz-adv-x="1460" d="M-19 0l502 1451q-120 76 -120 234q0 157 119 232q96 60 250 60q261 0 334 -161q24 -55 24 -128q-2 -156 -119 -232l508 -1456h-404l-84 284h-531l-80 -284h-399zM535 550h377l-141 477l-50 197l-51 -197zM568 1695q0 -67 44.5 -99.5t97 -32.5t82 4t50.5 17q44 27 44 101 q0 95 -96 121q-30 8 -62.5 8t-61 -4.5t-50.5 -17.5q-48 -30 -48 -97z" />
<glyph unicode="&#xc6;" horiz-adv-x="1970" d="M-119 0l721 1522h1220v-284h-578v-319h444v-277h-444v-351h639v-291h-1017v318h-438l-137 -318h-410zM540 579h326v755z" />
<glyph unicode="&#xc7;" horiz-adv-x="1306" d="M85 758q0 373 227 583q212 197 552 197q175 0 326 -44q37 -10 72 -17l-50 -329q-128 88 -317 88q-181 0 -295 -118q-120 -123 -120 -337q0 -231 109 -364q114 -139 322 -139q140 0 275 65q36 17 55 33l1 -312q-158 -67 -307 -78q35 -78 34.5 -172t-21.5 -141t-57 -77 q-70 -60 -186 -60q-82 0 -131.5 11t-59.5 17l23 181q23 -14 73 -14t84 37q34 39 34 125q0 57 -18 102q-299 44 -464 246q-161 199 -161 517z" />
<glyph unicode="&#xc8;" horiz-adv-x="1270" d="M173 0v1522h962v-284h-585v-322h451v-277h-451v-348h645v-291h-1022zM327 1858l262 130q28 -79 229 -290q21 -22 31 -32l-173 -132q-64 21 -176 126q-113 107 -173 198z" />
<glyph unicode="&#xc9;" horiz-adv-x="1270" d="M173 0v1522h962v-284h-585v-322h451v-277h-451v-348h645v-291h-1022zM555 1666q162 162 234 274q19 28 26 48l262 -130q-91 -134 -238 -255q-66 -55 -111 -69z" />
<glyph unicode="&#xca;" horiz-adv-x="1270" d="M173 0v1522h962v-284h-585v-322h451v-277h-451v-348h645v-291h-1022zM300 1656l284 308h234l285 -306l-178 -116l-224 193l-223 -193z" />
<glyph unicode="&#xcb;" horiz-adv-x="1270" d="M173 0v1522h962v-284h-585v-322h451v-277h-451v-348h645v-291h-1022zM235 1766q0 81 61 140q60 58 147 58t137.5 -50t50.5 -133q0 -84 -59 -141q-60 -58 -146 -58q-85 0 -138 51t-53 133zM776 1766q0 81 61 140q60 58 147.5 58t137.5 -50t50 -133q0 -84 -59 -141 q-60 -58 -146 -58q-85 0 -138 51t-53 133z" />
<glyph unicode="&#xcc;" horiz-adv-x="754" d="M4 1858l262 130q28 -79 229 -290q21 -22 31 -32l-173 -132q-64 21 -176 126q-113 107 -173 198zM185 0v1522h384v-1522h-384z" />
<glyph unicode="&#xcd;" horiz-adv-x="754" d="M185 0v1522h384v-1522h-384zM231 1666q162 162 234 274q19 28 26 48l262 -130q-91 -134 -238 -255q-66 -55 -111 -69z" />
<glyph unicode="&#xce;" horiz-adv-x="754" d="M-23 1656l284 308h234l285 -306l-178 -116l-224 193l-223 -193zM185 0v1522h384v-1522h-384z" />
<glyph unicode="&#xcf;" horiz-adv-x="754" d="M-88 1766q0 81 61 140q60 58 147 58t137.5 -50t50.5 -133q0 -84 -59 -141q-60 -58 -146 -58q-85 0 -138 51t-53 133zM185 0v1522h384v-1522h-384zM453 1766q0 81 61 140q60 58 147.5 58t137.5 -50t50 -133q0 -84 -59 -141q-60 -58 -146 -58q-85 0 -138 51t-53 133z" />
<glyph unicode="&#xd0;" horiz-adv-x="1561" d="M60 675v238h113v609h140l417 16q564 0 702 -426q45 -138 45 -323t-52 -337q-104 -305 -393 -414q-140 -54 -319 -54l-406 16h-134v675h-113zM556 280q54 -15 154 -15t165 30t111 91q95 128 95 379q0 270 -91 387q-85 111 -266 111q-84 0 -168 -13v-337h294v-238h-294 v-395z" />
<glyph unicode="&#xd1;" horiz-adv-x="1632" d="M173 0v1522h356l519 -835l106 -222l-41 387v670h345v-1522h-383l-493 815l-111 230l47 -387v-658h-345zM374 1731q27 95 104 159q89 73 204 73q81 0 122 -24.5t60.5 -41t37.5 -31.5q42 -34 77 -34t59 10t45 26q40 29 68 69l127 -136q-26 -96 -102 -161q-85 -75 -198 -75 q-77 0 -118.5 25t-61.5 42t-40 32q-47 35 -82 35t-58 -9.5t-44 -23.5q-37 -27 -67 -67z" />
<glyph unicode="&#xd2;" horiz-adv-x="1603" d="M93 769q0 191 57.5 340.5t153.5 242.5q195 186 545 186q306 0 483 -202t177 -551q0 -405 -204 -611q-188 -190 -527 -190q-157 0 -282 51q-403 164 -403 734zM455 1858l262 130q28 -79 229 -290q21 -22 31 -32l-173 -132q-64 21 -176 126q-113 107 -173 198zM485 758 q0 -348 178 -458q60 -37 140 -37q314 0 314 511q0 341 -166 444q-56 34 -128.5 34t-133.5 -24.5t-106 -82.5q-98 -126 -98 -387z" />
<glyph unicode="&#xd3;" horiz-adv-x="1603" d="M93 769q0 191 57.5 340.5t153.5 242.5q195 186 545 186q306 0 483 -202t177 -551q0 -405 -204 -611q-188 -190 -527 -190q-157 0 -282 51q-403 164 -403 734zM485 758q0 -348 178 -458q60 -37 140 -37q314 0 314 511q0 341 -166 444q-56 34 -128.5 34t-133.5 -24.5 t-106 -82.5q-98 -126 -98 -387zM684 1666q162 162 234 274q19 28 26 48l262 -130q-91 -134 -238 -255q-66 -55 -111 -69z" />
<glyph unicode="&#xd4;" horiz-adv-x="1603" d="M93 769q0 191 57.5 340.5t153.5 242.5q195 186 545 186q306 0 483 -202t177 -551q0 -405 -204 -611q-188 -190 -527 -190q-157 0 -282 51q-403 164 -403 734zM428 1656l284 308h234l285 -306l-178 -116l-224 193l-223 -193zM485 758q0 -348 178 -458q60 -37 140 -37 q314 0 314 511q0 341 -166 444q-56 34 -128.5 34t-133.5 -24.5t-106 -82.5q-98 -126 -98 -387z" />
<glyph unicode="&#xd5;" horiz-adv-x="1603" d="M93 769q0 191 57.5 340.5t153.5 242.5q195 186 545 186q306 0 483 -202t177 -551q0 -405 -204 -611q-188 -190 -527 -190q-157 0 -282 51q-403 164 -403 734zM381 1731q27 95 104 159q89 73 204 73q81 0 122 -24.5t60.5 -41t37.5 -31.5q42 -34 77 -34t59 10t45 26 q40 29 68 69l127 -136q-26 -96 -102 -161q-85 -75 -198 -75q-77 0 -118.5 25t-61.5 42t-40 32q-47 35 -82 35t-58 -9.5t-44 -23.5q-37 -27 -67 -67zM485 758q0 -348 178 -458q60 -37 140 -37q314 0 314 511q0 341 -166 444q-56 34 -128.5 34t-133.5 -24.5t-106 -82.5 q-98 -126 -98 -387z" />
<glyph unicode="&#xd6;" horiz-adv-x="1603" d="M93 769q0 191 57.5 340.5t153.5 242.5q195 186 545 186q306 0 483 -202t177 -551q0 -405 -204 -611q-188 -190 -527 -190q-157 0 -282 51q-403 164 -403 734zM363 1766q0 81 61 140q60 58 147 58t137.5 -50t50.5 -133q0 -84 -59 -141q-60 -58 -146 -58q-85 0 -138 51 t-53 133zM485 758q0 -348 178 -458q60 -37 140 -37q314 0 314 511q0 341 -166 444q-56 34 -128.5 34t-133.5 -24.5t-106 -82.5q-98 -126 -98 -387zM904 1766q0 81 61 140q60 58 147.5 58t137.5 -50t50 -133q0 -84 -59 -141q-60 -58 -146 -58q-85 0 -138 51t-53 133z" />
<glyph unicode="&#xd7;" horiz-adv-x="1402" d="M149 392l379 383l-379 397l186 179l368 -399l366 399l186 -179l-379 -395l378 -385l-187 -186l-366 387l-366 -387z" />
<glyph unicode="&#xd8;" horiz-adv-x="1603" d="M93 690q0 270 57.5 419.5t153.5 242.5q195 186 577 186q45 0 118 -14l103 287l135 -28l-108 -299q185 -80 285 -267q95 -179 95 -434q0 -403 -204 -609q-188 -190 -519 -190q-100 0 -191 20l-86 -238l-134 25l92 256q-279 127 -353 477q-21 101 -21 166zM485 758 q0 -256 99 -386l313 869q-38 11 -92.5 11t-115.5 -24.5t-106 -82.5q-98 -126 -98 -387zM696 283q49 -20 107 -20q314 0 314 511q0 265 -104 389z" />
<glyph unicode="&#xd9;" horiz-adv-x="1545" d="M138 638l4 884h378l-3 -837v-65.5t16 -134t49 -121.5q57 -80 193 -80q133 0 193 84q64 90 64 317v837h376v-890q0 -648 -628 -648q-500 0 -608 386q-34 121 -34 268zM400 1858l262 130q28 -79 229 -290q21 -22 31 -32l-173 -132q-64 21 -176 126q-113 107 -173 198z" />
<glyph unicode="&#xda;" horiz-adv-x="1545" d="M138 638l4 884h378l-3 -837v-65.5t16 -134t49 -121.5q57 -80 193 -80q133 0 193 84q64 90 64 317v837h376v-890q0 -648 -628 -648q-500 0 -608 386q-34 121 -34 268zM628 1666q162 162 234 274q19 28 26 48l262 -130q-91 -134 -238 -255q-66 -55 -111 -69z" />
<glyph unicode="&#xdb;" horiz-adv-x="1545" d="M138 638l4 884h378l-3 -837v-65.5t16 -134t49 -121.5q57 -80 193 -80q133 0 193 84q64 90 64 317v837h376v-890q0 -648 -628 -648q-500 0 -608 386q-34 121 -34 268zM372 1656l284 308h234l285 -306l-178 -116l-224 193l-223 -193z" />
<glyph unicode="&#xdc;" horiz-adv-x="1545" d="M138 638l4 884h378l-3 -837v-65.5t16 -134t49 -121.5q57 -80 193 -80q133 0 193 84q64 90 64 317v837h376v-890q0 -648 -628 -648q-500 0 -608 386q-34 121 -34 268zM307 1766q0 81 61 140q60 58 147 58t137.5 -50t50.5 -133q0 -84 -59 -141q-60 -58 -146 -58 q-85 0 -138 51t-53 133zM848 1766q0 81 61 140q60 58 147.5 58t137.5 -50t50 -133q0 -84 -59 -141q-60 -58 -146 -58q-85 0 -138 51t-53 133z" />
<glyph unicode="&#xdd;" horiz-adv-x="1289" d="M-53 1522h417l226 -492l64 -170l54 170l229 492h405l-505 -988v-534h-389v536zM518 1666q162 162 234 274q19 28 26 48l262 -130q-91 -134 -238 -255q-66 -55 -111 -69z" />
<glyph unicode="&#xde;" horiz-adv-x="1393" d="M173 0v1522h383v-236q55 3 117.5 8t156.5 5t193.5 -32t168.5 -94q142 -128 142 -368q0 -267 -144 -417q-147 -153 -408 -153q-130 0 -226 9v-244h-383zM556 512q48 -8 118.5 -8t119.5 13t86 45q78 70 78 229q0 231 -265 231q-71 0 -137 -16v-494z" />
<glyph unicode="&#xdf;" horiz-adv-x="1413" d="M41 897v223l152 30q48 219 228 330q162 99 408 99q214 0 339 -89q119 -84 119 -219q0 -145 -117 -231q-73 -54 -94.5 -81.5t-21.5 -58t23.5 -59t59 -61t76.5 -70t77 -86.5q82 -114 82 -242t-38 -202.5t-100 -117.5q-112 -78 -306 -78q-173 0 -239 36v247q52 -37 144 -37 q101 0 139 68q15 25 15 68t-19 80.5t-48 71t-62 66t-62 70.5q-67 88 -67 187q0 102 96 194q59 57 77.5 98.5t18.5 91.5t-36.5 85.5t-97.5 35.5t-103.5 -20t-71.5 -66q-62 -96 -62 -307v-953h-374v897h-135z" />
<glyph unicode="&#xe0;" horiz-adv-x="1263" d="M85 348q0 101 55 174.5t128.5 105t133 45.5t120.5 21q103 12 234 12v69q0 75 -40 99q-42 24 -168 24q-102 0 -259 -48q-47 -15 -85 -33l-75 218q123 75 349 113q76 12 181.5 12t199.5 -23t153 -75q112 -97 112 -333v-745h-232q-64 0 -83 12q-34 23 -34 92v8 q-128 -112 -318 -112q-168 0 -271 102q-101 102 -101 262zM183 1636l244 189q106 -178 257 -355q47 -55 86 -90l-169 -158q-77 37 -217 166q-155 141 -201 248zM467 362q0 -36 12 -65t33 -48q39 -37 100 -37q65 0 121 32q15 8 23 16v268q-125 0 -200 -35q-89 -33 -89 -131z " />
<glyph unicode="&#xe1;" horiz-adv-x="1263" d="M85 348q0 101 55 174.5t128.5 105t133 45.5t120.5 21q103 12 234 12v69q0 75 -40 99q-42 24 -168 24q-102 0 -259 -48q-47 -15 -85 -33l-75 218q123 75 349 113q76 12 181.5 12t199.5 -23t153 -75q112 -97 112 -333v-745h-232q-64 0 -83 12q-34 23 -34 92v8 q-128 -112 -318 -112q-168 0 -271 102q-101 102 -101 262zM467 362q0 -36 12 -65t33 -48q39 -37 100 -37q65 0 121 32q15 8 23 16v268q-125 0 -200 -35q-89 -33 -89 -131zM487 1396q185 185 339 429l243 -189q-58 -137 -277 -310q-78 -61 -132 -88z" />
<glyph unicode="&#xe2;" horiz-adv-x="1263" d="M85 348q0 101 55 174.5t128.5 105t133 45.5t120.5 21q103 12 234 12v69q0 75 -40 99q-42 24 -168 24q-102 0 -259 -48q-47 -15 -85 -33l-75 218q123 75 349 113q76 12 181.5 12t199.5 -23t153 -75q112 -97 112 -333v-745h-232q-64 0 -83 12q-34 23 -34 92v8 q-128 -112 -318 -112q-168 0 -271 102q-101 102 -101 262zM224 1363l305 370h223l304 -370l-177 -114l-239 227l-240 -227zM467 362q0 -36 12 -65t33 -48q39 -37 100 -37q65 0 121 32q15 8 23 16v268q-125 0 -200 -35q-89 -33 -89 -131z" />
<glyph unicode="&#xe3;" horiz-adv-x="1263" d="M85 348q0 101 55 174.5t128.5 105t133 45.5t120.5 21q103 12 234 12v69q0 75 -40 99q-42 24 -168 24q-102 0 -259 -48q-47 -15 -85 -33l-75 218q123 75 349 113q76 12 181.5 12t199.5 -23t153 -75q112 -97 112 -333v-745h-232q-64 0 -83 12q-34 23 -34 92v8 q-128 -112 -318 -112q-168 0 -271 102q-101 102 -101 262zM174 1466q26 95 105 158q89 73 207 73q86 0 128.5 -24.5t62 -41t37.5 -31.5q42 -34 86 -34q86 0 167 106l127 -136q-26 -95 -103 -162q-87 -74 -201 -74q-77 0 -120.5 25t-64 42t-41.5 32q-47 35 -95 35 q-85 0 -162 -101zM467 362q0 -36 12 -65t33 -48q39 -37 100 -37q65 0 121 32q15 8 23 16v268q-125 0 -200 -35q-89 -33 -89 -131z" />
<glyph unicode="&#xe4;" horiz-adv-x="1263" d="M85 348q0 101 55 174.5t128.5 105t133 45.5t120.5 21q103 12 234 12v69q0 75 -40 99q-42 24 -168 24q-102 0 -259 -48q-47 -15 -85 -33l-75 218q123 75 349 113q76 12 181.5 12t199.5 -23t153 -75q112 -97 112 -333v-745h-232q-64 0 -83 12q-34 23 -34 92v8 q-128 -112 -318 -112q-168 0 -271 102q-101 102 -101 262zM183 1471q0 84 61 143q62 61 145 61q132 0 174 -112q13 -35 13 -77q0 -84 -59 -144q-59 -61 -144 -61q-43 0 -78 14t-60 39q-52 54 -52 137zM467 362q0 -36 12 -65t33 -48q39 -37 100 -37q65 0 121 32q15 8 23 16 v268q-125 0 -200 -35q-89 -33 -89 -131zM701 1471q0 85 60 143q62 61 146 61q85 0 136 -53q50 -51 50 -136q0 -84 -58 -144q-60 -61 -144 -61q-43 0 -78 14t-60 39q-52 54 -52 137z" />
<glyph unicode="&#xe5;" horiz-adv-x="1263" d="M85 348q0 101 55 174.5t128.5 105t133 45.5t120.5 21q103 12 234 12v69q0 75 -40 99q-42 24 -168 24q-102 0 -259 -48q-47 -15 -85 -33l-75 218q123 75 349 113q76 12 181.5 12t199.5 -23t153 -75q112 -97 112 -333v-745h-232q-64 0 -83 12q-34 23 -34 92v8 q-128 -112 -318 -112q-168 0 -271 102q-101 102 -101 262zM275 1604q0 154 120 236q97 66 249 66q259 0 333 -172q25 -57 24.5 -134t-31.5 -135.5t-82 -96t-117 -55t-144 -17.5t-146 22q-134 44 -183 162q-23 56 -23 124zM467 362q0 -36 12 -65t33 -48q39 -37 100 -37 q65 0 121 32q15 8 23 16v268q-125 0 -200 -35q-89 -33 -89 -131zM480 1607q0 -97 94 -131q29 -11 64.5 -11t65 6t50.5 21q44 33 44 108q0 100 -97 133q-29 10 -63 10q-158 0 -158 -136z" />
<glyph unicode="&#xe6;" horiz-adv-x="1877" d="M92 333q0 154 124 251q76 59 163.5 79.5t146.5 28.5q103 14 225 14v61q0 71 -49.5 99t-126 28t-127.5 -8.5t-96 -21.5q-93 -25 -138 -51l-79 222q124 70 326 109q86 16 186 16q242 0 336 -98q138 94 334 94q328 0 434 -236q40 -90 40.5 -221t-10.5 -212h-664 q18 -237 283 -237q128 0 248 36q34 11 55 22l57 -201q-99 -81 -302 -113q-68 -10 -144 -10q-286 0 -433 172q-157 -172 -419 -172q-163 0 -264 92q-106 94 -106 257zM466 358q0 -36 12.5 -64t32.5 -46q76 -71 205 -12q53 25 81 63q-40 103 -46 229q-135 -2 -225 -51 q-60 -33 -60 -119zM1120 668h333q1 21 1 41q0 94 -30.5 151t-114.5 57q-124 0 -167 -131q-15 -47 -22 -118z" />
<glyph unicode="&#xe7;" horiz-adv-x="1048" d="M85 559q0 265 140 423q153 174 439 174q165 0 272 -37q29 -10 43 -20l-42 -278q-82 47 -223 47q-165 0 -230 -148q-24 -57 -24 -142.5t19 -143.5t54 -96q66 -70 197 -70t220 41l45 -209q-81 -81 -247 -106q39 -80 39 -200q0 -131 -79 -198q-70 -60 -186 -60 q-82 0 -131.5 11t-59.5 17l23 181q23 -14 73 -14t83 37q35 39 35 125q0 55 -17 98q-219 31 -335 189q-108 147 -108 379z" />
<glyph unicode="&#xe8;" horiz-adv-x="1221" d="M85 575q0 255 150 415q155 166 422 166q329 0 437 -236q41 -90 41.5 -219t-11.5 -218h-669q22 -237 285 -237q131 0 250 36q35 11 56 22l57 -197q-99 -81 -305 -113q-69 -10 -176 -10t-213 40.5t-178 116.5q-146 154 -146 434zM198 1636l244 189q106 -178 257 -355 q47 -55 86 -90l-169 -158q-77 37 -217 166q-155 141 -201 248zM458 668h335q1 22 1 42q0 94 -30 150.5t-115 56.5q-124 0 -168 -131q-16 -47 -23 -118z" />
<glyph unicode="&#xe9;" horiz-adv-x="1221" d="M85 575q0 255 150 415q155 166 422 166q329 0 437 -236q41 -90 41.5 -219t-11.5 -218h-669q22 -237 285 -237q131 0 250 36q35 11 56 22l57 -197q-99 -81 -305 -113q-69 -10 -176 -10t-213 40.5t-178 116.5q-146 154 -146 434zM458 668h335q1 22 1 42q0 94 -30 150.5 t-115 56.5q-124 0 -168 -131q-16 -47 -23 -118zM501 1396q185 185 339 429l243 -189q-58 -137 -277 -310q-78 -61 -132 -88z" />
<glyph unicode="&#xea;" horiz-adv-x="1221" d="M85 575q0 255 150 415q155 166 422 166q329 0 437 -236q41 -90 41.5 -219t-11.5 -218h-669q22 -237 285 -237q131 0 250 36q35 11 56 22l57 -197q-99 -81 -305 -113q-69 -10 -176 -10t-213 40.5t-178 116.5q-146 154 -146 434zM238 1363l305 370h223l304 -370l-177 -114 l-239 227l-240 -227zM458 668h335q1 22 1 42q0 94 -30 150.5t-115 56.5q-124 0 -168 -131q-16 -47 -23 -118z" />
<glyph unicode="&#xeb;" horiz-adv-x="1221" d="M85 575q0 255 150 415q155 166 422 166q329 0 437 -236q41 -90 41.5 -219t-11.5 -218h-669q22 -237 285 -237q131 0 250 36q35 11 56 22l57 -197q-99 -81 -305 -113q-69 -10 -176 -10t-213 40.5t-178 116.5q-146 154 -146 434zM197 1471q0 84 61 143q62 61 145 61 q132 0 174 -112q13 -35 13 -77q0 -84 -59 -144q-59 -61 -144 -61q-43 0 -78 14t-60 39q-52 54 -52 137zM458 668h335q1 22 1 42q0 94 -30 150.5t-115 56.5q-124 0 -168 -131q-16 -47 -23 -118zM715 1471q0 85 60 143q62 61 146 61q85 0 136 -53q50 -51 50 -136 q0 -84 -58 -144q-60 -61 -144 -61q-43 0 -78 14t-60 39q-52 54 -52 137z" />
<glyph unicode="&#xec;" horiz-adv-x="690" d="M-110 1636l244 189q106 -178 257 -355q47 -55 86 -90l-169 -158q-77 37 -217 166q-155 141 -201 248zM159 0v1140h372v-1140h-372z" />
<glyph unicode="&#xed;" horiz-adv-x="690" d="M159 0v1140h372v-1140h-372zM193 1396q185 185 339 429l243 -189q-58 -137 -277 -310q-78 -61 -132 -88z" />
<glyph unicode="&#xee;" horiz-adv-x="690" d="M-70 1363l305 370h223l304 -370l-177 -114l-239 227l-240 -227zM159 0v1140h372v-1140h-372z" />
<glyph unicode="&#xef;" horiz-adv-x="690" d="M-96 1470q0 84 58 144q59 60 145 60t133.5 -52.5t47.5 -136.5t-56 -144q-58 -61 -142 -61q-43 0 -77.5 14t-58.5 40q-50 53 -50 136zM159 0v1140h372v-1140h-372zM399 1470q0 85 59 144q60 60 143 60q85 0 135 -52q48 -50 48 -137q0 -85 -57 -144q-59 -61 -143 -61 q-42 0 -76.5 14t-58.5 40q-50 53 -50 136z" />
<glyph unicode="&#xf0;" horiz-adv-x="1321" d="M84 550q0 263 139 428q145 171 394 171q111 0 196 -46q-62 172 -231 304l-120 -161l-164 114l125 160q-113 68 -206 97l60 192q180 -52 286 -108q51 67 126 176l167 -115q-83 -109 -120 -155q236 -147 378 -407q140 -253 140 -535q0 -345 -177 -529q-157 -163 -414 -163 q-264 0 -423 160q-156 158 -156 417zM474 536q0 -229 116 -288q35 -18 76.5 -18t79.5 21t66 65q63 98 63 276v52q0 101 -4 177q-39 60 -130 83q-30 7 -63 7q-94 0 -149 -94t-55 -281z" />
<glyph unicode="&#xf1;" horiz-adv-x="1380" d="M163 0v1140h338l9 -122q107 90 268 127q57 13 126.5 13t132.5 -21.5t107 -73.5q86 -103 86 -345v-718h-370v652q0 124 -32 171q-30 44 -106 44h-25.5t-74 -19t-89.5 -55v-793h-370zM313 1466q26 95 105 158q89 73 207 73q86 0 128.5 -24.5t62 -41t37.5 -31.5 q42 -34 86 -34q86 0 167 106l127 -136q-26 -95 -103 -162q-87 -74 -201 -74q-77 0 -120.5 25t-64 42t-41.5 32q-47 35 -95 35q-85 0 -162 -101z" />
<glyph unicode="&#xf2;" horiz-adv-x="1330" d="M86 615q0 110 45.5 217.5t123.5 179.5q158 144 421 144q390 0 517 -306q51 -123 51 -290q0 -279 -168 -432q-158 -144 -421 -144q-390 0 -517 306q-28 67 -40 141t-12 184zM217 1636l244 189q106 -178 257 -355q47 -55 86 -90l-169 -158q-77 37 -217 166 q-155 141 -201 248zM471 582q0 -343 192 -343q107 0 153 81q43 75 43 244q0 335 -190 335q-157 0 -188 -180q-10 -59 -10 -137z" />
<glyph unicode="&#xf3;" horiz-adv-x="1330" d="M86 615q0 110 45.5 217.5t123.5 179.5q158 144 421 144q390 0 517 -306q51 -123 51 -290q0 -279 -168 -432q-158 -144 -421 -144q-390 0 -517 306q-28 67 -40 141t-12 184zM471 582q0 -343 192 -343q107 0 153 81q43 75 43 244q0 335 -190 335q-157 0 -188 -180 q-10 -59 -10 -137zM521 1396q185 185 339 429l243 -189q-58 -137 -277 -310q-78 -61 -132 -88z" />
<glyph unicode="&#xf4;" horiz-adv-x="1330" d="M86 615q0 110 45.5 217.5t123.5 179.5q158 144 421 144q390 0 517 -306q51 -123 51 -290q0 -279 -168 -432q-158 -144 -421 -144q-390 0 -517 306q-28 67 -40 141t-12 184zM257 1363l305 370h223l304 -370l-177 -114l-239 227l-240 -227zM471 582q0 -343 192 -343 q107 0 153 81q43 75 43 244q0 335 -190 335q-157 0 -188 -180q-10 -59 -10 -137z" />
<glyph unicode="&#xf5;" horiz-adv-x="1330" d="M86 615q0 110 45.5 217.5t123.5 179.5q158 144 421 144q390 0 517 -306q51 -123 51 -290q0 -279 -168 -432q-158 -144 -421 -144q-390 0 -517 306q-28 67 -40 141t-12 184zM208 1466q26 95 105 158q89 73 207 73q86 0 128.5 -24.5t62 -41t37.5 -31.5q42 -34 86 -34 q86 0 167 106l127 -136q-26 -95 -103 -162q-87 -74 -201 -74q-77 0 -120.5 25t-64 42t-41.5 32q-47 35 -95 35q-85 0 -162 -101zM471 582q0 -343 192 -343q107 0 153 81q43 75 43 244q0 335 -190 335q-157 0 -188 -180q-10 -59 -10 -137z" />
<glyph unicode="&#xf6;" horiz-adv-x="1330" d="M86 615q0 110 45.5 217.5t123.5 179.5q158 144 421 144q390 0 517 -306q51 -123 51 -290q0 -279 -168 -432q-158 -144 -421 -144q-390 0 -517 306q-28 67 -40 141t-12 184zM217 1471q0 84 61 143q62 61 145 61q132 0 174 -112q13 -35 13 -77q0 -84 -59 -144 q-59 -61 -144 -61q-43 0 -78 14t-60 39q-52 54 -52 137zM471 582q0 -343 192 -343q107 0 153 81q43 75 43 244q0 335 -190 335q-157 0 -188 -180q-10 -59 -10 -137zM735 1471q0 85 60 143q62 61 146 61q85 0 136 -53q50 -51 50 -136q0 -84 -58 -144q-60 -61 -144 -61 q-43 0 -78 14t-60 39q-52 54 -52 137z" />
<glyph unicode="&#xf7;" horiz-adv-x="1417" d="M190 639v269h1036v-269h-1036zM517 305q0 89 65 156q66 67 160 67q142 0 188 -124q14 -38 14 -83q0 -91 -64 -157q-65 -67 -158 -67q-90 0 -148 59q-57 59 -57 149zM519 1237q0 91 65 157q68 67 160 67q93 0 148 -59q55 -58 55 -148q0 -92 -64 -158q-66 -67 -157 -67 q-47 0 -85 16t-65 43q-57 59 -57 149z" />
<glyph unicode="&#xf8;" horiz-adv-x="1335" d="M86 582q0 275 169 430q158 144 421 144q68 0 126 -10l86 238l133 -28l-89 -245q312 -127 312 -553q0 -277 -168 -430q-78 -71 -185.5 -107.5t-205.5 -36.5t-158 10l-82 -228l-131 25l85 237q-313 124 -313 554zM458 582q0 -157 52 -248l201 560q-22 5 -42 5 q-112 0 -161.5 -80.5t-49.5 -236.5zM618 244q23 -5 45 -5q110 0 159.5 80t49.5 245q0 151 -51 241z" />
<glyph unicode="&#xf9;" horiz-adv-x="1362" d="M145 470v670h371v-679q0 -125 37 -170q34 -41 114 -41q71 0 135 35q17 9 27 18v837h371v-1156h-268q-35 0 -52 10.5t-17 47.5v48q-93 -71 -247 -98q-45 -8 -85 -8q-231 0 -318 138q-68 106 -68 348zM232 1636l244 189q106 -178 257 -355q47 -55 86 -90l-169 -158 q-77 37 -217 166q-155 141 -201 248z" />
<glyph unicode="&#xfa;" horiz-adv-x="1362" d="M145 470v670h371v-679q0 -125 37 -170q34 -41 114 -41q71 0 135 35q17 9 27 18v837h371v-1156h-268q-35 0 -52 10.5t-17 47.5v48q-93 -71 -247 -98q-45 -8 -85 -8q-231 0 -318 138q-68 106 -68 348zM535 1396q185 185 339 429l243 -189q-58 -137 -277 -310 q-78 -61 -132 -88z" />
<glyph unicode="&#xfb;" horiz-adv-x="1362" d="M145 470v670h371v-679q0 -125 37 -170q34 -41 114 -41q71 0 135 35q17 9 27 18v837h371v-1156h-268q-35 0 -52 10.5t-17 47.5v48q-93 -71 -247 -98q-45 -8 -85 -8q-231 0 -318 138q-68 106 -68 348zM272 1363l305 370h223l304 -370l-177 -114l-239 227l-240 -227z" />
<glyph unicode="&#xfc;" horiz-adv-x="1362" d="M145 470v670h371v-679q0 -125 37 -170q34 -41 114 -41q71 0 135 35q17 9 27 18v837h371v-1156h-268q-35 0 -52 10.5t-17 47.5v48q-93 -71 -247 -98q-45 -8 -85 -8q-231 0 -318 138q-68 106 -68 348zM231 1471q0 84 61 143q62 61 145 61q132 0 174 -112q13 -35 13 -77 q0 -84 -59 -144q-59 -61 -144 -61q-43 0 -78 14t-60 39q-52 54 -52 137zM749 1471q0 85 60 143q62 61 146 61q85 0 136 -53q50 -51 50 -136q0 -84 -58 -144q-60 -61 -144 -61q-43 0 -78 14t-60 39q-52 54 -52 137z" />
<glyph unicode="&#xfd;" horiz-adv-x="1208" d="M-4 1140h391l164 -600l75 -313l196 913h388l-359 -1167q-111 -354 -364 -448q-76 -32 -197 -32q-53 0 -109 8.5t-60 11.5v284q24 -9 67.5 -15t69 -6t68 5.5t81.5 28.5q88 50 124 190h-142zM470 1396q185 185 339 429l243 -189q-58 -137 -277 -310q-78 -61 -132 -88z" />
<glyph unicode="&#xfe;" horiz-adv-x="1381" d="M159 -507v2168h371v-411l-8 -209q127 115 322 115q194 0 317 -134q135 -146 135 -410q0 -289 -165 -462q-79 -82 -190.5 -126.5t-216 -44.5t-196.5 9l5 -157v-338h-374zM530 262q30 -34 156 -34q98 0 159 94q64 98 64 268q0 234 -115 278q-35 13 -70.5 13t-63.5 -5.5 t-52 -14.5q-49 -18 -78 -40v-559z" />
<glyph unicode="&#xff;" horiz-adv-x="1208" d="M-4 1140h391l164 -600l75 -313l196 913h388l-359 -1167q-111 -354 -364 -448q-76 -32 -197 -32q-53 0 -109 8.5t-60 11.5v284q24 -9 67.5 -15t69 -6t68 5.5t81.5 28.5q88 50 124 190h-142zM166 1471q0 84 61 143q62 61 145 61q132 0 174 -112q13 -35 13 -77 q0 -84 -59 -144q-59 -61 -144 -61q-43 0 -78 14t-60 39q-52 54 -52 137zM684 1471q0 85 60 143q62 61 146 61q85 0 136 -53q50 -51 50 -136q0 -84 -58 -144q-60 -61 -144 -61q-43 0 -78 14t-60 39q-52 54 -52 137z" />
<glyph unicode="&#x152;" horiz-adv-x="2156" d="M97 747q0 393 213 603q189 186 501 188q147 0 239 -57v41h957v-284h-579v-319h434v-277h-434v-351h639v-291h-1017v51q-111 -67 -277 -67t-292 57q-255 115 -343 409q-41 136 -41 297zM487 735.5q0 -219.5 84.5 -342.5t247.5 -123t231 102v766q-77 106 -217 106 q-207 0 -289 -171q-57 -118 -57 -337.5z" />
<glyph unicode="&#x153;" horiz-adv-x="1993" d="M86 580q0 277 168 432q158 144 412.5 144t393.5 -126q147 126 374 126q329 0 435 -236q40 -90 40 -221t-11 -212h-665q17 -184 171 -224q50 -13 101.5 -13t96.5 5t86 13q88 17 132 40l56 -201q-99 -81 -302 -113q-68 -10 -144 -10q-243 0 -384 125q-151 -125 -392 -125 q-390 0 -517 306q-51 123 -51 290zM474 582q0 -343 188 -343q107 0 152 81q41 74 41 244q0 335 -188 335q-107 0 -152 -81q-41 -75 -41 -236zM1236 668h333q1 22 1 42q0 93 -30 150t-114 57q-165 0 -190 -249z" />
<glyph unicode="&#x178;" horiz-adv-x="1289" d="M-53 1522h417l226 -492l64 -170l54 170l229 492h405l-505 -988v-534h-389v536zM198 1766q0 81 61 140q60 58 147 58t137.5 -50t50.5 -133q0 -84 -59 -141q-60 -58 -146 -58q-85 0 -138 51t-53 133zM739 1766q0 81 61 140q60 58 147.5 58t137.5 -50t50 -133 q0 -84 -59 -141q-60 -58 -146 -58q-85 0 -138 51t-53 133z" />
<glyph unicode="&#x2c6;" horiz-adv-x="894" d="M31 1363l305 370h223l304 -370l-177 -114l-239 227l-240 -227z" />
<glyph unicode="&#x2dc;" horiz-adv-x="933" d="M8 1466q26 95 105 158q89 73 207 73q86 0 128.5 -24.5t62 -41t37.5 -31.5q42 -34 86 -34q86 0 167 106l127 -136q-26 -95 -103 -162q-87 -74 -201 -74q-77 0 -120.5 25t-64 42t-41.5 32q-47 35 -95 35q-85 0 -162 -101z" />
<glyph unicode="&#x2000;" horiz-adv-x="994" />
<glyph unicode="&#x2001;" horiz-adv-x="1988" />
<glyph unicode="&#x2002;" horiz-adv-x="994" />
<glyph unicode="&#x2003;" horiz-adv-x="1988" />
<glyph unicode="&#x2004;" horiz-adv-x="662" />
<glyph unicode="&#x2005;" horiz-adv-x="497" />
<glyph unicode="&#x2006;" horiz-adv-x="331" />
<glyph unicode="&#x2007;" horiz-adv-x="331" />
<glyph unicode="&#x2008;" horiz-adv-x="248" />
<glyph unicode="&#x2009;" horiz-adv-x="397" />
<glyph unicode="&#x200a;" horiz-adv-x="110" />
<glyph unicode="&#x2010;" horiz-adv-x="1358" d="M254 626v278h850v-278h-850z" />
<glyph unicode="&#x2011;" horiz-adv-x="1358" d="M254 626v278h850v-278h-850z" />
<glyph unicode="&#x2012;" horiz-adv-x="1358" d="M254 626v278h850v-278h-850z" />
<glyph unicode="&#x2013;" horiz-adv-x="1708" d="M248 626v278h1212v-278h-1212z" />
<glyph unicode="&#x2014;" horiz-adv-x="2422" d="M248 626v278h1926v-278h-1926z" />
<glyph unicode="&#x2018;" horiz-adv-x="624" d="M110 1272q0 123 23.5 203t56.5 137q52 93 123 144l154 -95v-29q-38 -48 -53 -170q-4 -39 -4 -83t8.5 -83.5t21.5 -69.5q27 -60 60 -79v-79l-197 -152q-73 26 -129 123q-64 110 -64 233z" />
<glyph unicode="&#x2019;" horiz-adv-x="624" d="M113 1525v79l202 152q73 -27 126 -120q61 -108 61 -231t-24 -203.5t-57 -138.5q-54 -96 -125 -147l-150 96v29q37 46 52 171q4 38 4 82t-8.5 83.5t-21.5 69.5q-27 60 -59 78z" />
<glyph unicode="&#x201a;" horiz-adv-x="624" d="M113 72v79l202 152q73 -27 126 -120q61 -108 61 -231t-24 -203.5t-57 -138.5q-54 -96 -125 -147l-150 96v29q37 46 52 171q4 38 4 82t-8.5 83.5t-21.5 69.5q-27 60 -59 78z" />
<glyph unicode="&#x201c;" horiz-adv-x="1188" d="M110 1272q0 123 23.5 203t56.5 137q52 93 123 144l154 -95v-29q-38 -48 -53 -170q-4 -39 -4 -83t8.5 -83.5t21.5 -69.5q27 -60 60 -79v-79l-197 -152q-73 26 -129 123q-64 110 -64 233zM674 1272q0 123 23.5 203t56.5 137q52 93 123 144l154 -95v-29q-38 -48 -53 -170 q-4 -39 -4 -83t8.5 -83.5t21.5 -69.5q27 -60 60 -79v-79l-197 -152q-73 26 -129 123q-64 110 -64 233z" />
<glyph unicode="&#x201d;" horiz-adv-x="1192" d="M113 1525v79l202 152q73 -27 126 -120q61 -108 61 -231t-24 -203.5t-57 -138.5q-54 -96 -125 -147l-150 96v29q37 46 52 171q4 38 4 82t-8.5 83.5t-21.5 69.5q-27 60 -59 78zM681 1525v79l202 152q73 -27 126 -120q61 -108 61 -231t-24 -203.5t-57 -138.5 q-54 -96 -125 -147l-150 96v29q37 46 52 171q4 38 4 82t-8.5 83.5t-21.5 69.5q-27 60 -59 78z" />
<glyph unicode="&#x201e;" horiz-adv-x="1184" d="M113 75v79l202 152q73 -27 126 -120q61 -108 61 -231t-24 -203.5t-57 -138.5q-54 -96 -125 -147l-150 96v29q37 46 52 171q4 38 4 82t-8.5 83.5t-21.5 69.5q-27 60 -59 78zM673 75v79l202 152q73 -27 126 -120q61 -108 61 -231t-24 -203.5t-57 -138.5q-54 -96 -125 -147 l-150 96v29q37 46 52 171q4 38 4 82t-8.5 83.5t-21.5 69.5q-27 60 -59 78z" />
<glyph unicode="&#x2022;" horiz-adv-x="911" d="M161 721q0 121 92 211t215 90t204 -79q78 -77 78 -201q0 -119 -90 -211q-89 -91 -214 -91q-123 0 -205 80q-80 79 -80 201z" />
<glyph unicode="&#x2026;" horiz-adv-x="1994" d="M120 189q0 90 65 159q65 68 159 68q93 0 150 -60q54 -58 54 -150q0 -93 -63 -160q-65 -68 -158 -68q-92 0 -149 60q-58 62 -58 151zM783 189q0 90 65 159q65 68 159 68q92 0 149 -60q54 -58 54 -150q0 -93 -62 -160q-65 -68 -158 -68q-92 0 -149 60q-58 62 -58 151z M1446 189q0 91 64 159q65 68 160 68q92 0 148 -60q55 -58 55 -150q0 -93 -63 -160q-65 -68 -158 -68q-92 0 -149 60q-57 61 -57 151z" />
<glyph unicode="&#x202f;" horiz-adv-x="397" />
<glyph unicode="&#x2039;" horiz-adv-x="1212" d="M221 473v284l664 417l86 -253l-396 -306l396 -306l-86 -253z" />
<glyph unicode="&#x203a;" horiz-adv-x="1212" d="M233 309l86 -253l664 417v284l-664 417l-86 -253l396 -306z" />
<glyph unicode="&#x205f;" horiz-adv-x="497" />
<glyph unicode="&#x20ac;" horiz-adv-x="1478" d="M84 472v205h183v43q0 48 5 123h-158v205h195q141 491 701 491q151 0 278 -43q33 -12 65 -19l-53 -288q-110 68 -289 68q-240 0 -327 -209h485v-205h-526q-1 -11 -1 -23v-48.5t4 -94.5h478v-205h-439q81 -226 331 -226q133 0 248 46q34 14 57 30l60 -279 q-29 -4 -68.5 -17.5t-69.5 -22t-70 -15.5q-91 -16 -223 -16t-243.5 33.5t-194.5 97.5q-165 126 -220 369h-208z" />
<glyph unicode="&#x2122;" horiz-adv-x="2226" d="M128 1543h739v-213l-252 1v-564h-242v564l-244 -1zM953 767l43 776h386l95 -312l33 -142l28 142l92 312h377l70 -776h-241l-32 452l-6 123l-52 -172l-142 -403h-175l-157 403l-59 172l-15 -575h-245z" />
<glyph unicode="&#x25fc;" horiz-adv-x="1140" d="M0 0v1140h1140v-1140h-1140z" />
</font>
</defs>
</svg>
