<?xml version="1.0" standalone="no"?>
<!DOCTYPE svg PUBLIC "-//W3C//DTD SVG 1.1//EN" "http://www.w3.org/Graphics/SVG/1.1/DTD/svg11.dtd" >
<svg xmlns="http://www.w3.org/2000/svg">
<metadata></metadata>
<defs>
<font id="merriweather_sansbold_italic" horiz-adv-x="0" >
<font-face units-per-em="2048" ascent="1638" descent="-410" />
<missing-glyph horiz-adv-x="485" />
<glyph unicode="&#xfb01;" horiz-adv-x="1354" d="M129 0l130 954h-130l34 186h122l16 100q26 197 145 314q123 122 311 122q106 0 164 -26l-56 -199q-51 40 -119 40q-138 0 -168 -196l-24 -155h200l-20 -186h-203l-130 -954h-272zM832 0l156 1140h277l-157 -1140h-276zM1020 1494.5q0 32.5 14.5 64.5t38.5 55 q51 52 124 52q105 0 140 -86q10 -24 10 -55.5t-14 -64.5t-38 -57t-57.5 -38t-69 -14t-61.5 11q-54 22 -77 76q-10 24 -10 56.5z" />
<glyph unicode="&#xfb02;" horiz-adv-x="1355" d="M129 0l130 954h-130l34 186h122l16 100q26 197 145 314q123 122 311 122q106 0 164 -26l-56 -199q-51 40 -119 40q-138 0 -168 -196l-24 -155h200l-20 -186h-203l-130 -954h-272zM834 2l222 1634h277l-223 -1634h-276z" />
<glyph unicode="&#xfb03;" horiz-adv-x="2084" d="M129 0l130 954h-130l34 186h122l16 100q26 197 145 314q123 122 311 122q106 0 164 -26l-56 -199q-51 40 -119 40q-138 0 -168 -196l-24 -155h200l-20 -186h-203l-130 -954h-272zM859 0l130 954h-130l34 186h122l16 100q26 197 145 314q123 122 311 122q106 0 164 -26 l-56 -199q-51 40 -119 40q-138 0 -168 -196l-24 -155h200l-20 -186h-203l-130 -954h-272zM1562 0l156 1140h277l-157 -1140h-276zM1750 1494.5q0 32.5 14.5 64.5t38.5 55q51 52 124 52q105 0 140 -86q10 -24 10 -55.5t-14 -64.5t-38 -57t-57.5 -38t-69 -14t-61.5 11 q-54 22 -77 76q-10 24 -10 56.5z" />
<glyph unicode="&#xfb04;" horiz-adv-x="2085" d="M129 0l130 954h-130l34 186h122l16 100q26 197 145 314q123 122 311 122q106 0 164 -26l-56 -199q-51 40 -119 40q-138 0 -168 -196l-24 -155h200l-20 -186h-203l-130 -954h-272zM859 0l130 954h-130l34 186h122l16 100q26 197 145 314q123 122 311 122q106 0 164 -26 l-56 -199q-51 40 -119 40q-138 0 -168 -196l-24 -155h200l-20 -186h-203l-130 -954h-272zM1564 2l222 1634h277l-223 -1634h-276z" />
<glyph />
<glyph horiz-adv-x="682" />
<glyph />
<glyph />
<glyph />
<glyph />
<glyph />
<glyph />
<glyph />
<glyph />
<glyph unicode="&#x9;" />
<glyph unicode="&#xa;" />
<glyph />
<glyph />
<glyph />
<glyph />
<glyph />
<glyph />
<glyph />
<glyph />
<glyph />
<glyph />
<glyph />
<glyph />
<glyph unicode=" "  horiz-adv-x="485" />
<glyph unicode="&#x09;" horiz-adv-x="485" />
<glyph unicode="&#xa0;" horiz-adv-x="485" />
<glyph unicode="!" horiz-adv-x="686" d="M112 111.5q0 33.5 16.5 68.5t42.5 60q55 54 134 54q140 0 140 -130q0 -85 -59 -140q-54 -50 -136 -50q-64 0 -103 38q-18 19 -26.5 42.5t-8.5 57zM223 488l146 1290h295l-233 -1290h-208z" />
<glyph unicode="&#x22;" horiz-adv-x="1068" d="M220 966l81 721h277l-174 -721h-184zM744 966l81 721h277l-174 -721h-184z" />
<glyph unicode="#" horiz-adv-x="1405" d="M110 343l14 178h206l57 353h-200l13 174h212l50 309h205l-48 -309h271l53 309h205l-51 -309h212l-13 -174h-224l-58 -353h207l-14 -178h-219l-56 -343h-200l50 343h-272l-61 -343h-202l57 343h-194zM536 521h272l57 353h-271z" />
<glyph unicode="$" horiz-adv-x="1204" d="M101 73l85 221q66 -59 210 -88q45 -9 95.5 -9t99.5 11.5t84 34.5q75 49 75 144q0 77 -34 126q-57 82 -170 160q-128 88 -183 160q-109 142 -109 293q0 161 104 271q106 111 285 139l38 225h211l-37 -220q164 -17 251 -80l-86 -216q-58 61 -198 81q-38 5 -77 5t-81 -9 t-74 -28q-73 -45 -73 -136q0 -86 49 -148q45 -56 132 -119.5t139 -105.5t95 -94q100 -121 100 -261q0 -283 -242 -393q-77 -35 -173 -48l-42 -242h-210l41 238q-149 15 -261 63q-30 13 -44 25z" />
<glyph unicode="%" horiz-adv-x="1957" d="M152 1045q0 179 127 317q133 144 321 144q301 0 301 -319q0 -188 -121 -329q-59 -67 -141.5 -108t-171 -41t-145 24.5t-94.5 68.5q-76 88 -76 243zM350 1055q0 -181 150 -181q43 0 81.5 31t62.5 76q49 89 49 178.5t-33.5 136.5t-91.5 47t-98 -29.5t-67 -73.5 q-53 -85 -53 -185zM466 0l837 1530h204l-827 -1530h-214zM1105 404q0 80 33.5 163t93.5 148q133 144 322 144q300 0 300 -320q0 -188 -121 -328q-129 -149 -326 -149q-146 0 -226 93q-76 88 -76 249zM1303 408q0 -41 9.5 -74t27.5 -57q38 -50 103 -50q126 0 183 170 q21 63 21 134t-33.5 117.5t-91.5 46.5t-98.5 -29t-67.5 -72.5t-40 -94t-13 -91.5z" />
<glyph unicode="&#x26;" horiz-adv-x="1550" d="M50 365q0 194 206 337q61 42 127 79q-84 182 -84 337q0 185 121 304q126 124 333 124q192 0 295 -103q85 -85 85 -191.5t-38.5 -180t-100 -133t-139.5 -108.5l-157 -94q158 -262 329 -421q75 90 75 217q0 50 -12 105q-68 -6 -101 -26l10 179q35 40 152 40l367 -1 l-14 -190h-151q3 -24 3 -53q0 -241 -151 -398q87 -37 223 -37h29l-31 -150q-65 -19 -199 -19t-252 59q-154 -58 -311.5 -58t-263 21.5t-183.5 67.5q-167 98 -167 293zM325 382q0 -113 99 -166q82 -45 225 -45q80 0 150 16q-151 148 -253 313l-66 107q-155 -108 -155 -225z M554 1154q0 -130 53 -252q133 74 180 122q91 92 91 175q0 171 -148 171q-79 0 -129 -68q-47 -65 -47 -148z" />
<glyph unicode="'" horiz-adv-x="544" d="M220 966l81 721h277l-174 -721h-184z" />
<glyph unicode="(" horiz-adv-x="854" d="M167 492q0 322 85 560q114 323 340 556q107 110 194 158l133 -89q-285 -261 -413 -655q-32 -99 -48 -189q-28 -165 -28 -319.5t26.5 -279.5t63.5 -220q62 -158 154 -264l-142 -85h-17q-112 88 -209 263q-82 147 -120 358q-19 108 -19 206z" />
<glyph unicode=")" horiz-adv-x="854" d="M-29 -249q285 261 413 655q32 99 48 189q28 165 28 319.5t-26.5 279.5t-63.5 220q-62 158 -154 264l142 85h17q112 -88 209 -263q82 -147 120 -358q19 -108 19 -206q0 -322 -85 -560q-114 -323 -340 -556q-107 -110 -194 -158z" />
<glyph unicode="*" horiz-adv-x="1366" d="M192 976l303 123l136 51l-125 50l-277 125l122 187l238 -187l99 -88l-6 139l-3 311h215l-68 -311l-38 -139l121 88l274 188l87 -188l-303 -125l-135 -51l125 -50l277 -123l-133 -187l-229 186l-102 91l11 -141l7 -312l-221 1l68 311l35 141l-116 -91l-270 -188z" />
<glyph unicode="+" horiz-adv-x="1359" d="M212 674l26 210h238l127 -11l11 152l29 255h225l-26 -255l-27 -151l106 10h265l-26 -210h-265l-104 7l-8 -150l-31 -258h-226l30 258l25 150l-132 -7h-237z" />
<glyph unicode="," horiz-adv-x="526" d="M-22 -402l3 21q114 57 152 187q12 40 12 77t-7 67t-20 54q-25 50 -64 64l7 54l131 158q104 -40 156 -142q40 -80 40 -168.5t-23.5 -164t-66.5 -137.5q-88 -128 -237 -178z" />
<glyph unicode="-" horiz-adv-x="1266" d="M221 671l27 203h839l-28 -203h-838z" />
<glyph unicode="." horiz-adv-x="526" d="M60 95.5q0 47.5 12.5 81.5t36.5 60q53 57 133 57q107 0 132 -80q8 -24 8 -50q0 -88 -50 -139t-123 -51t-111 37t-38 84.5z" />
<glyph unicode="/" horiz-adv-x="854" d="M-118 -362l862 1959h224l-863 -1959h-223z" />
<glyph unicode="0" horiz-adv-x="1278" d="M98 455q0 96 23 187.5t65 170t101 142t129 107.5q149 94 318 94q222 0 334 -134q102 -120 102 -331q0 -286 -180 -495q-114 -133 -278 -186q-82 -26 -185.5 -26t-186.5 39t-137 103.5t-79.5 148.5t-25.5 180zM369 472q0 -52 13 -103t39 -89q56 -84 148.5 -84t153.5 42 t100 109q77 132 77 314q0 285 -197 285q-174 0 -262 -163q-72 -133 -72 -311z" />
<glyph unicode="1" horiz-adv-x="983" d="M179 960q149 34 326 144l90 58l162 -15l-165 -1147h-279l121 847q-82 -26 -136.5 -34.5t-87.5 -14.5z" />
<glyph unicode="2" horiz-adv-x="1269" d="M57 136q296 153 493 326q214 188 214 324q0 152 -161 152q-111 0 -251 -89q-37 -24 -65 -48l-96 151q121 129 323 186q73 21 165 21t168 -28t125 -75q97 -90 97 -233q0 -277 -381 -513q-109 -67 -224 -127l661 30l-36 -213h-993z" />
<glyph unicode="3" horiz-adv-x="1136" d="M45 -315l25 199q74 -10 155 -10t166.5 19t146.5 56q130 78 130 216q0 132 -122 176q-44 16 -108 17l-164 -36l22 214q261 42 358 166q36 46 36 107q0 127 -165 127q-144 0 -289 -113l-80 177q104 100 309 144q73 15 149 15t142 -17t116 -52q110 -79 110 -217 q0 -133 -105 -245q-102 -110 -259 -159q165 -4 263 -95q92 -86 92 -204.5t-61.5 -210t-166.5 -155.5q-215 -131 -536 -131q-70 0 -164 12z" />
<glyph unicode="4" horiz-adv-x="1284" d="M11 129l315 547q215 387 313 580h172l112 -89l-553 -885l-79 -105l410 17l55 420l258 35l-55 -446l226 15l-29 -218h-225l-47 -375h-259l49 375h-606z" />
<glyph unicode="5" horiz-adv-x="1146" d="M40 -339l30 186q40 -7 90.5 -7t114.5 8.5t124.5 26t114 45t93.5 66.5q86 82 86 200q0 216 -219 216q-128 0 -244 -53l-99 105l157 689h567l22 16h188l-60 -238h-507l-97 -360q101 32 223 32q181 0 280.5 -93.5t99.5 -274.5q0 -263 -239 -425q-232 -156 -595 -156 q-79 0 -130 17z" />
<glyph unicode="6" horiz-adv-x="1278" d="M128 512.5q0 116.5 29.5 237.5t85 231.5t134 208t175.5 177.5q202 165 457 231l62 -163q-213 -75 -385 -236q-149 -141 -199 -279q121 93 311 93q177 0 272 -125q83 -109 83 -282q0 -243 -138 -420q-97 -125 -255 -176q-81 -26 -189 -26t-193 41t-140.5 111.5t-82.5 165 t-27 211zM391 508q0 -79 14.5 -139t42.5 -104q61 -93 169 -93q175 0 243 229q26 85 26 161.5t-15 121.5t-41 74q-49 56 -118 56t-114 -12t-80 -30q-59 -30 -96 -73q-31 -112 -31 -191z" />
<glyph unicode="7" horiz-adv-x="1116" d="M89 926l49 217h922l41 -54l-614 -1424l-238 87l533 1176z" />
<glyph unicode="8" horiz-adv-x="1330" d="M125 351q0 159 112 281q96 103 257 164q-185 157 -185 340q0 198 137 312q132 111 350 111q182 0 302 -91q121 -93 121 -243q0 -151 -104 -267q-90 -101 -232 -150q127 -95 175 -160q91 -124 91 -233.5t-42.5 -188t-116.5 -132.5q-153 -112 -392 -112q-197 0 -330 94 q-143 102 -143 275zM398 388q0 -100 70 -166q68 -64 167 -64q103 0 166.5 59.5t63.5 154.5q0 129 -155 256q-47 39 -102 79q-206 -118 -210 -319zM574 1169q0 -110 116 -211q35 -31 76 -61q139 73 184 206q15 46 15 96t-15.5 85t-41.5 58q-53 48 -115.5 48t-100 -17 t-63.5 -47q-55 -62 -55 -157z" />
<glyph unicode="9" horiz-adv-x="1278" d="M120 538q0 243 138 420q97 125 256 176q81 26 188.5 26t192.5 -41t141 -111q109 -140 109 -367q0 -378 -249 -688q-159 -199 -388 -317q-116 -60 -244 -93l-61 163q214 75 383 236q153 144 201 277q-119 -93 -281 -93q-185 0 -291 126q-95 113 -95 286zM387 581 q0 -77 16 -123t44 -75.5t64.5 -43.5t83.5 -14t89.5 12.5t75.5 30.5q54 28 92 72q31 124 31 199.5t-14.5 135.5t-43.5 104q-61 93 -169 93q-175 0 -244 -229q-25 -85 -25 -162z" />
<glyph unicode=":" horiz-adv-x="526" d="M40 95.5q0 47.5 12.5 81.5t36.5 60q53 57 133 57q107 0 132 -80q8 -24 8 -50q0 -88 -50 -139t-123 -51t-111 37t-38 84.5zM132 904.5q0 47.5 12.5 81.5t36.5 60q53 57 133 57q107 0 132 -80q8 -24 8 -50q0 -88 -50 -139t-123 -51t-111 37t-38 84.5z" />
<glyph unicode=";" horiz-adv-x="526" d="M-22 -402l3 21q114 57 152 187q12 40 12 77t-7 67t-20 54q-25 50 -64 64l7 54l131 158q104 -40 156 -142q40 -80 40 -168.5t-23.5 -164t-66.5 -137.5q-88 -128 -237 -178zM135 904.5q0 47.5 12.5 81.5t36.5 60q53 57 133 57q107 0 132 -80q8 -24 8 -50q0 -88 -50 -139 t-123 -51t-111 37t-38 84.5z" />
<glyph unicode="&#x3c;" horiz-adv-x="1382" d="M197 693l16 129l1019 515l-30 -252l-699 -338l616 -339l-23 -230z" />
<glyph unicode="=" horiz-adv-x="1074" d="M101 327l28 203h827l-27 -203h-828zM164 828l27 203h828l-28 -203h-827z" />
<glyph unicode="&#x3e;" horiz-adv-x="1382" d="M252 181l30 252l699 338l-616 339l23 230l899 -515l-16 -129z" />
<glyph unicode="?" horiz-adv-x="1040" d="M247 705q0 40 14.5 78t46.5 74q61 68 210 146q224 108 257 199q16 61 16 115.5t-25 102t-68 80.5q-91 69 -226 69q-118 0 -212 -28l42 185q38 35 148 49q31 4 61 4q269 0 408 -129q123 -115 123 -302q0 -231 -179 -362q-51 -38 -105 -68l-104 -58q-110 -57 -154 -118 q-25 -34 -25 -67t5.5 -54t13.5 -39l14 -35q7 -16 10 -26l-147 -58l-17 1q-69 51 -98 166q-9 35 -9 75zM331 95.5q0 47.5 12.5 81.5t36.5 60q53 57 133 57q107 0 133 -80q7 -24 7 -50q0 -88 -50 -139t-123 -51t-111 37t-38 84.5z" />
<glyph unicode="@" horiz-adv-x="1998" d="M112 367.5q0 187.5 39 344.5t109.5 287t170.5 232t221 171q250 143 554 143q328 0 520 -175q192 -174 192 -471q0 -398 -208 -656q-122 -151 -274 -205q-74 -27 -124.5 -27t-71 14t-32.5 39q-20 45 -20 105q0 96 12 202q-110 -259 -261 -337q-52 -27 -105 -27t-106 25 q-113 55 -164 214q-25 76 -25 178q0 264 141 462q96 133 244 188q77 28 134 28t86 -3t60 -9q74 -16 110 -42l180 30q-50 -191 -99 -678l-7 -64q-4 -46 -4 -68v-37q0 -27 13 -27q77 0 153 100q112 150 152 398q12 79 12 195.5t-44.5 217.5t-120.5 160q-137 106 -388 106 q-253 0 -455 -145q-187 -135 -292 -361q-104 -221 -104 -467q0 -451 318 -604q134 -65 309 -65q156 0 299 47q39 12 63 24l46 -134q-109 -81 -301 -108q-61 -8 -125 -8q-358 0 -579 213q-107 104 -167.5 255.5t-60.5 339zM776 466q0 -238 108 -238q82 0 203 244 q112 225 135 394q-32 42 -114 56q-21 3 -54 3t-73.5 -20.5t-73 -55.5t-57 -81t-40.5 -97q-34 -104 -34 -205z" />
<glyph unicode="A" horiz-adv-x="1305" d="M-100 -1l744 1531h334l257 -1530l-277 -1l-48 342h-561l-148 -341zM434 537h448l-95 682l-10 118l-47 -121z" />
<glyph unicode="B" horiz-adv-x="1296" d="M91 0l206 1530h141q72 1 147.5 8.5t184 7.5t200.5 -28t147 -74q101 -86 101 -236v-42.5t-19.5 -102.5t-58.5 -115q-81 -108 -225 -145q202 -35 267 -197q21 -53 21 -86v-35q0 -257 -194 -383q-179 -117 -514 -117q-30 0 -67 3l-150 10q-36 2 -63 2h-124zM393 192 q48 -12 138.5 -12t158.5 14q220 43 220 271q0 127 -74.5 179t-219.5 52q-94 0 -156 -5zM486 886q32 -2 66 -2h65q230 0 298 163q22 53 22 124q0 102 -63 142.5t-189 40.5q-89 0 -137 -6z" />
<glyph unicode="C" horiz-adv-x="1167" d="M94 610.5q0 151.5 24.5 268t72 218.5t116 185t153.5 142q178 122 395 122q137 0 235 -34l50 -18l54 -16l-86 -250l-37 25q-91 61 -238 61q-238 0 -358 -228q-99 -186 -99 -436q0 -323 169 -412q57 -31 126 -31t122 10.5t96 26.5q82 29 126 62l38 -208q-82 -66 -272 -100 q-74 -14 -168.5 -14t-171.5 25.5t-135 71t-98 107t-65 132.5q-49 139 -49 290.5z" />
<glyph unicode="D" horiz-adv-x="1400" d="M91 0l206 1530h139l342 16q579 0 579 -630q0 -393 -208 -655q-141 -178 -361 -245q-106 -32 -228 -32q-65 0 -114.5 4t-76 6t-53.5 3l-54 2q-26 1 -48 1h-123zM396 214q74 -25 172 -25h24q236 3 366 231q114 198 114 488q0 250 -87 346q-81 89 -273 89q-82 0 -167 -17z " />
<glyph unicode="E" horiz-adv-x="1171" d="M91 0l206 1530h841l-22 -216l-572 5l-57 -432l428 6l-24 -221l-432 12l-63 -474l666 13l-25 -223h-946z" />
<glyph unicode="F" horiz-adv-x="1069" d="M91 0l206 1530h824l-28 -216l-549 6l-59 -449l449 7l-24 -230l-454 12l-89 -660h-276z" />
<glyph unicode="G" horiz-adv-x="1384" d="M91 627q0 404 222 662q141 165 342 227q100 30 189.5 30t146.5 -6t102 -14q68 -13 136 -36l66 -22l-68 -250q-90 65 -242 93q-59 11 -138.5 11t-151 -30t-126 -81.5t-92.5 -120.5q-106 -191 -106 -440v-55t17.5 -130t55.5 -141q82 -130 242 -130q149 0 261 54l46 322 h-240l27 220h501l-94 -703q-43 -5 -103 -22l-105 -31q-174 -50 -306 -50t-212 26q-155 49 -246 176q-124 175 -124 441z" />
<glyph unicode="H" horiz-adv-x="1455" d="M85 0l206 1530h276l-91 -675h568l91 675h278l-206 -1530h-278l88 658h-568l-88 -658h-276z" />
<glyph unicode="I" horiz-adv-x="643" d="M113 0l206 1530h276l-206 -1530h-276z" />
<glyph unicode="J" horiz-adv-x="640" d="M-175 -233q117 34 198 128q72 83 99 215q16 74 34.5 188.5t36 239t33.5 254.5q76 634 89 738h277l-124 -945l-34 -240q-34 -224 -56.5 -304.5t-77.5 -157t-124 -123.5q-124 -82 -312 -96z" />
<glyph unicode="K" horiz-adv-x="1291" d="M91 0l206 1530h276l-97 -719l600 719h318l-610 -677q72 -125 140 -255q245 -463 332 -599l-328 2q-7 10 -22 39l-140 283q-12 21 -30 60l-130 272l-178 -197l-61 -458h-276z" />
<glyph unicode="L" horiz-adv-x="1023" d="M91 0l206 1530h276l-176 -1309l534 8l-32 -229h-808z" />
<glyph unicode="M" horiz-adv-x="1890" d="M9 0l399 1530h385l114 -1056l11 -197l49 197l391 1056h402l-30 -1530h-277l69 1080l26 308l-105 -284l-437 -1107l-265 -15l-140 1109l-19 297l-56 -302l-243 -1086h-274z" />
<glyph unicode="N" horiz-adv-x="1450" d="M91 0l206 1530h257l398 -927l71 -233l16 254l110 906h265l-206 -1530h-245l-402 954l-76 254l-12 -287l-120 -921h-262z" />
<glyph unicode="O" horiz-adv-x="1386" d="M86 605q0 396 197 662q132 177 326 245q97 34 217 34t216 -48.5t161 -131.5q131 -171 131 -443q0 -392 -195 -659q-130 -179 -322 -246q-98 -34 -218.5 -34t-218 48.5t-162.5 131.5q-132 169 -132 441zM371 635q0 -347 152 -419q49 -23 113.5 -23t120 28.5t101.5 78 t81 118.5q110 211 110 478q0 346 -152 416q-49 23 -113.5 23t-120 -29t-101.5 -79.5t-81 -118.5q-110 -212 -110 -473z" />
<glyph unicode="P" horiz-adv-x="1239" d="M91 0l206 1530h136q66 0 143.5 8t182 8t197 -25.5t156.5 -76.5q130 -106 130 -318q0 -275 -168 -446q-83 -83 -201 -129.5t-250.5 -46.5t-186.5 6l-69 -510h-276zM465 727q46 -13 136 -13h7q94 0 159 27t109 77q91 105 91 305q0 226 -270 226q-38 0 -66 -3l-49 -6 q-20 -3 -36 -6z" />
<glyph unicode="Q" horiz-adv-x="1387" d="M86 605q0 396 197 662q132 177 326 245q97 34 217 34t216 -48.5t161 -131.5q131 -171 131 -440q0 -361 -165 -618q-172 -268 -453 -315q-3 -132 165 -147q49 -5 161.5 -5t193.5 27v-178q-61 -52 -250 -74q-52 -6 -101 -6t-100.5 8.5t-96 27t-80.5 48.5q-85 71 -85 195 q0 45 13 99q-215 25 -336 200q-114 165 -114 417zM371 635q0 -347 152 -419q49 -23 113.5 -23t120 28.5t101.5 78t81 118.5q110 211 110 478q0 346 -152 416q-49 23 -113.5 23t-120 -29t-101.5 -79.5t-81 -118.5q-110 -212 -110 -473z" />
<glyph unicode="R" horiz-adv-x="1307" d="M90 0l206 1530h152l299 16q509 0 509 -381q0 -283 -189 -428q-65 -50 -154 -77q85 -76 142 -267q107 -288 129 -330.5t37 -63.5l-309 2q-17 25 -36 80q-42 128 -66 209.5t-45 137t-43 96.5q-47 86 -92 88h-66l-114 1l-84 -613h-276zM478 830q20 -1 49 -2h59q31 -1 58 -1 h43q149 0 227 105q62 85 62 214q0 111 -66.5 156t-190.5 45q-89 0 -173 -13z" />
<glyph unicode="S" horiz-adv-x="1051" d="M12 78l88 224q68 -61 214 -90q46 -9 96.5 -9t98.5 12t83 36q72 50 72 146q0 78 -34 124q-54 75 -169 156q-127 90 -180 160q-105 138 -105 281q0 196 137 312t362 116q237 0 352 -85l-87 -216q-61 61 -192 81q-38 5 -78 5t-81.5 -9.5t-72.5 -30.5q-72 -48 -72 -143 q0 -117 119 -215q40 -33 91 -70t103 -79.5t94 -93.5q97 -119 97 -242.5t-40.5 -208t-114.5 -141.5q-148 -114 -400 -114q-175 0 -325 64q-39 16 -56 30z" />
<glyph unicode="T" horiz-adv-x="1138" d="M133 1314l33 216h1055l-30 -216l-386 11l-178 -1325h-279l178 1325z" />
<glyph unicode="U" horiz-adv-x="1402" d="M130 446q0 50 13 149l125 935h276l-120 -895q-11 -87 -11 -191v-17q2 -227 239 -227q144 0 221 97q81 101 115 342l119 891h273l-122 -918q-45 -336 -203 -485q-152 -143 -444 -143q-122 0 -212 31q-269 93 -269 431z" />
<glyph unicode="V" horiz-adv-x="1201" d="M116 1530h276l140 -1040l21 -242l82 242l416 1040h292l-678 -1530h-311z" />
<glyph unicode="W" horiz-adv-x="1788" d="M112 1530h277l100 -1037l26 -219l64 219l300 758l-30 279h268l107 -1256l63 219l376 1037h282l-612 -1535h-308l-76 703l-16 169l-58 -169l-265 -703h-290z" />
<glyph unicode="X" horiz-adv-x="1201" d="M-79 0l561 801l-320 729h299l203 -545l353 545h305l-540 -786l347 -744l-307 -1l-225 576l-358 -575h-318z" />
<glyph unicode="Y" horiz-adv-x="1124" d="M83 1530h292l195 -608l28 -105l48 105l348 608h303l-597 -940l-80 -590h-271l80 590z" />
<glyph unicode="Z" horiz-adv-x="1158" d="M-27 89l777 1114l114 113l-639 -12l34 226h937l24 -86l-761 -1114l-104 -110l685 11l-37 -231h-1002z" />
<glyph unicode="[" horiz-adv-x="854" d="M155 -62q0 50 4 97t12.5 118.5t21.5 166.5l171 1178q21 148 72 208q55 63 171 63q91 0 295 -47l-20 -131h-265l-218 -1634h79l108 -1h78q-2 -12 -6.5 -49t-7 -56t-2.5 -24l-68 -19q-122 -33 -240 -33q-185 0 -185 163z" />
<glyph unicode="\" horiz-adv-x="854" d="M16 1597h221l577 -1959h-222z" />
<glyph unicode="]" horiz-adv-x="854" d="M14 -166l20 131h265l218 1634h-79l-108 1h-78q2 12 6.5 49t7 56t2.5 24l68 19q122 33 240 33q185 0 185 -163q0 -50 -4 -97t-12.5 -118.5t-21.5 -166.5l-171 -1178q-21 -148 -72 -208q-55 -63 -171 -63q-91 0 -295 47z" />
<glyph unicode="^" horiz-adv-x="1364" d="M151 510l521 1021h232l262 -1021h-221l-181 739l-388 -739h-225z" />
<glyph unicode="_" horiz-adv-x="1335" d="M-111 -363l20 176h1378l-20 -176h-1378z" />
<glyph unicode="`" horiz-adv-x="544" d="M19 1575l181 169l311 -426l-104 -84q-74 29 -213 152q-142 125 -175 189z" />
<glyph unicode="a" horiz-adv-x="1207" d="M76 414q0 284 163 498q114 151 298 212q94 32 203 32t243 -39l149 39l-159 -1156h-246l14 217q-90 -157 -230 -213q-52 -20 -125.5 -20t-135 32.5t-100.5 90.5q-74 112 -74 307zM363 437q0 -257 116 -257q81 0 167 106q66 79 120 200l67 480q-45 14 -111 14t-116 -23.5 t-89.5 -64t-68.5 -94.5t-48 -114q-37 -117 -37 -247z" />
<glyph unicode="b" horiz-adv-x="1227" d="M80 -8l222 1644h264l-70 -574l-27 -147q90 161 237 219q54 22 128.5 22t136 -33t99.5 -91q75 -112 75 -308q0 -283 -165 -498q-187 -242 -513 -242q-118 0 -241 41zM380 174q42 -13 110 -13t119 23.5t91 63.5t69.5 93.5t48.5 114.5q39 119 39 246q0 256 -115 256 q-111 0 -229 -182q-42 -64 -73 -136z" />
<glyph unicode="c" horiz-adv-x="931" d="M80 438q0 288 160 496q78 101 189 161.5t251 60.5q151 0 239 -40l-68 -255q-97 83 -193 83q-116 0 -203 -124q-94 -134 -94 -344q0 -226 97 -273q34 -16 80 -16q122 0 249 127l77 -138q-85 -123 -250 -173q-63 -19 -153 -19t-164.5 36t-122.5 98q-94 120 -94 320z" />
<glyph unicode="d" horiz-adv-x="1218" d="M75 414q0 282 165 498q116 151 300 212q95 32 179.5 32t142.5 -10l67 490h270l-216 -1636h-247l15 230q-89 -164 -237 -224q-54 -22 -128.5 -22t-136 32.5t-99.5 90.5q-75 112 -75 307zM362 437q0 -255 116 -255q82 0 173 108q67 81 122 203l64 469q-56 18 -116.5 18 t-111 -23.5t-90.5 -64t-69.5 -94.5t-49.5 -114q-38 -118 -38 -247z" />
<glyph unicode="e" horiz-adv-x="1074" d="M79 431q0 154 48 288.5t130.5 230.5t195.5 151t219.5 55t165 -19t97.5 -53q75 -65 75 -184q0 -332 -495 -464q-75 -20 -145 -32v-12q0 -210 177 -210q126 0 258 100q39 29 70 61l73 -141q-56 -79 -165 -140q-138 -78 -270 -78t-211 38q-223 109 -223 409zM370 563 q117 7 237 91q133 93 133 211.5t-102 118.5q-147 0 -230 -242q-31 -90 -38 -179z" />
<glyph unicode="f" horiz-adv-x="730" d="M129 0l130 954h-130l34 186h122l16 100q26 197 145 314q123 122 311 122q106 0 164 -26l-56 -199q-51 40 -119 40q-138 0 -168 -196l-24 -155h200l-20 -186h-203l-130 -954h-272z" />
<glyph unicode="g" horiz-adv-x="1213" d="M75 414q0 282 165 498q116 151 300 212q95 32 204 32t243 -39l152 39l-167 -1217q-46 -311 -334 -412q-109 -38 -246 -38q-109 0 -182 16.5t-88 23.5l51 210q72 -41 151 -56t129.5 -15t92 16.5t70.5 47.5q50 55 74 171l55 316q-94 -158 -235 -214q-52 -21 -125.5 -21 t-135 32.5t-99.5 90.5q-75 112 -75 307zM362 437q0 -255 116 -255q80 0 170 105q68 80 121 199l67 481q-51 13 -113.5 13t-113 -23.5t-90.5 -64t-69.5 -94.5t-49.5 -114q-38 -118 -38 -247z" />
<glyph unicode="h" horiz-adv-x="1256" d="M83 0l214 1636h272l-64 -520l-35 -199q125 168 296 221q57 18 117 18q187 0 233 -158q17 -57 17 -107.5t-3 -85t-8.5 -79.5t-13.5 -99q-20 -154 -32 -233l-58 -394h-276l54 384q10 66 21 147q29 216 29 300q0 32 -4 45q-16 55 -87 55q-68 0 -156 -63q-86 -63 -148 -155 l-97 -713h-271z" />
<glyph unicode="i" horiz-adv-x="624" d="M102 0l156 1140h277l-157 -1140h-276zM292 1496.5q0 32.5 14.5 64.5t38.5 55q51 52 124 52q105 0 140 -86q10 -24 10 -55.5t-14 -64.5t-38 -57t-57.5 -38t-69 -14t-61.5 11q-54 22 -77 76q-10 24 -10 56.5z" />
<glyph unicode="j" horiz-adv-x="622" d="M-252 -485l70 146q14 -11 63.5 -11t92 34t68.5 92q37 80 68 291l147 1073h277l-156 -1138q-33 -245 -166 -386q-129 -137 -307 -137q-107 0 -157 36zM289 1496.5q0 32.5 14.5 64.5t38.5 55q51 52 124 52q105 0 140 -86q10 -24 10 -55.5t-14 -64.5t-38 -57t-57.5 -38 t-69 -14t-61.5 11q-54 22 -77 76q-10 24 -10 56.5z" />
<glyph unicode="k" horiz-adv-x="1134" d="M83 0l214 1636h272l-214 -1636h-272zM473 632h2l-2 1q86 48 150 116.5t122 161.5q84 117 120 229h270q-9 -112 -84 -228q-88 -153 -229 -254q-40 -29 -75 -47l345 -609h-318z" />
<glyph unicode="l" horiz-adv-x="625" d="M104 2l222 1634h277l-223 -1634h-276z" />
<glyph unicode="m" horiz-adv-x="1867" d="M80 2l155 1138h265l-18 -207q122 158 280 207q54 16 111 16q102 0 164 -50t77 -168q121 153 278 202q54 16 111.5 16t103 -16t77.5 -51q63 -71 63 -229q0 -40 -9 -109l-15 -124q-7 -54 -16 -116l-74 -509h-276l72 510q33 234 33 322q0 30 -4 42q-17 55 -88 55 q-88 0 -198 -107q-34 -33 -62 -71q-5 -48 -13 -109q-45 -321 -55 -391l-37 -251h-276l55 382q9 66 20 147q29 210 29 296q0 34 -5 49q-16 55 -87 55q-102 0 -222 -130q-36 -39 -65 -84l-98 -715h-276z" />
<glyph unicode="n" horiz-adv-x="1257" d="M80 2l155 1138h263l-16 -212q125 162 290 211q56 17 115.5 17t106 -16t78.5 -51q64 -72 64 -229q0 -40 -8 -109l-16 -124q-7 -54 -16 -116l-74 -509h-276l54 382q10 66 21 147q29 213 29 299q0 32 -4 46q-15 55 -88 55q-107 0 -236 -135q-39 -40 -69 -85l-97 -709h-276z " />
<glyph unicode="o" horiz-adv-x="1158" d="M76 466q0 276 159 476q107 135 268 188q82 26 181 26t174 -35t123 -97q97 -125 97 -350q0 -277 -157 -476q-167 -214 -442 -214q-103 0 -178 35q-225 104 -225 447zM355 452q0 -287 163 -287q137 0 214 177q64 146 64 342q0 154 -38.5 223t-119.5 69q-136 0 -215 -180 q-68 -152 -68 -344z" />
<glyph unicode="p" horiz-adv-x="1227" d="M12 -503l221 1643h251l-10 -210q93 152 233 206q52 20 125.5 20t135 -32.5t100.5 -89.5q74 -110 74 -306q0 -282 -166 -500q-114 -151 -300 -212q-95 -32 -178.5 -32t-144.5 11l-68 -498h-273zM378 174q42 -13 109.5 -13t118.5 23.5t91 64t69.5 94.5t49.5 115 q38 119 38 247q0 253 -115 253q-84 0 -173 -106q-73 -85 -122 -198z" />
<glyph unicode="q" horiz-adv-x="1219" d="M75 414q0 282 165 498q116 151 300 212q95 32 205 32t240 -38l151 41l-220 -1658h-273l67 501l38 224q-91 -162 -236 -220q-53 -22 -127 -22t-135.5 32.5t-99.5 90.5q-75 112 -75 307zM362 437q0 -255 116 -255q79 0 167 102q66 76 122 196l66 488q-51 12 -112 12 t-111.5 -23.5t-90.5 -64t-69.5 -94.5t-49.5 -114q-38 -118 -38 -247z" />
<glyph unicode="r" horiz-adv-x="846" d="M80 0l156 1140h265l-18 -216q40 87 119 154q93 78 202 78q51 0 66 -13l-54 -285q-24 20 -78 20t-89.5 -12.5t-70.5 -36.5q-72 -50 -127 -141l-95 -688h-276z" />
<glyph unicode="s" horiz-adv-x="925" d="M50 48l47 226q69 -55 186 -82q41 -10 81 -10q167 0 167 113q0 71 -115 161q-146 113 -196 190q-53 83 -53 174t32 151t88 101q115 84 301 84q171 0 262 -38l-38 -241q-43 48 -146 73q-38 9 -95.5 9t-101 -28t-43.5 -71.5t11.5 -68t32.5 -47.5t50 -47l66 -54 q106 -84 142 -134q69 -94 69 -189t-35 -157.5t-94 -102.5q-116 -76 -305 -76q-152 0 -267 42q-32 11 -46 22z" />
<glyph unicode="t" horiz-adv-x="790" d="M134 954l39 186h105l80 278h216l-37 -278h242l-23 -186h-244l-84 -629q-4 -30 -4 -57q0 -86 63 -86q53 0 153 60q25 16 41 30l39 -139q-98 -94 -258 -136q-56 -15 -108 -15t-90.5 11.5t-65.5 35.5q-59 51 -59 150q0 51 17 168l78 607h-100z" />
<glyph unicode="u" horiz-adv-x="1233" d="M111 253v33q0 43 15 162q27 206 36 265l60 427h274q-34 -251 -41 -310l-38 -287q-23 -161 -23 -231t27.5 -94.5t68.5 -24.5t79 18.5t76 49.5q70 59 133 157l98 722h276l-153 -1140h-250l13 205q-111 -156 -266 -207q-55 -18 -114 -18q-271 0 -271 273z" />
<glyph unicode="v" horiz-adv-x="1073" d="M98 1140h284l65 -723l12 -202l96 127q201 316 231 728q2 32 2 47.5v22.5h257q6 -68 6 -94q0 -383 -301 -760q-83 -104 -173 -190l-90 -103l-227 -12l-56 376z" />
<glyph unicode="w" horiz-adv-x="1713" d="M100 1140h290l65 -723l11 -207l97 132q168 270 218 525l-33 273h278l61 -723l12 -207l95 129q151 237 194 497l10 65q21 142 21 187v52h254l2 -23q3 -36 3 -61q0 -394 -292 -763q-84 -107 -182 -200l-86 -100l-217 -12l-57 376l-13 107q-116 -227 -255 -368l-86 -103 l-225 -12l-56 376z" />
<glyph unicode="x" horiz-adv-x="1003" d="M-80 2l440 595l-278 543h321l136 -363l234 363h284l-423 -578l300 -560h-319l-158 381l-248 -381h-289z" />
<glyph unicode="y" horiz-adv-x="1095" d="M-144 -458l73 203q76 -46 134 -46t100 13t85 46q85 64 193 224h-164l-60 375l-112 783h284l115 -1045q15 27 30 59l31 63q32 69 50 122q80 158 109 271q64 248 66 458q1 37 2 72h256q3 -38 3 -75q0 -227 -59 -420.5t-130 -343.5q-123 -260 -270 -452l-99 -128 q-180 -230 -435 -230q-100 0 -202 51z" />
<glyph unicode="z" horiz-adv-x="975" d="M-37 52l567 773l111 104h-488l29 211h773l41 -48l-571 -787l-99 -91h533l-22 -214h-827z" />
<glyph unicode="{" horiz-adv-x="1024" d="M106 698l25 163l101 26q95 26 135 67q18 18 21 35l82 528q24 148 79 203q55 54 181 54q101 0 295 -52q-7 -34 -11 -60l-8 -47q-3 -21 -3 -25h-276l-95 -625q-6 -41 -29.5 -67.5t-49 -42.5t-53.5 -27l-136 -54q22 -12 46.5 -24t47.5 -24q54 -30 74 -50q48 -48 39 -107 l-93 -612h275q-2 -6 -5 -26l-5 -43q-4 -26 -7 -57q-186 -62 -304 -62t-158 38.5t-40 118.5q0 9 4 39l85 598q0 37 -42 66q-62 41 -175 69z" />
<glyph unicode="|" horiz-adv-x="854" d="M337 -186v1966h213v-1966h-213z" />
<glyph unicode="}" horiz-adv-x="1024" d="M48 -176q7 34 11 60l8 47q3 21 3 25h276l95 625q6 41 29.5 67.5t49 42.5t53.5 27l136 54q-22 12 -46.5 24t-47.5 24q-54 30 -74 50q-48 48 -39 107l93 612h-275q2 6 5 26l5 43q4 26 7 57q186 62 304 62t158 -38.5t40 -118.5q0 -9 -4 -39l-85 -598q0 -37 42 -66 q62 -41 175 -69l-25 -163l-101 -26q-95 -26 -135 -67q-18 -18 -21 -35l-82 -528q-24 -148 -79 -203q-55 -54 -181 -54q-101 0 -295 52z" />
<glyph unicode="~" horiz-adv-x="1137" d="M104 867q25 78 120 145q99 70 207 70q98 0 205 -86q70 -55 103.5 -70.5t63.5 -15.5q116 0 192 112l103 -106q-23 -84 -116 -151q-97 -69 -206 -69q-98 0 -204 88q-68 57 -103 73t-68 16q-105 0 -187 -113z" />
<glyph />
<glyph unicode="&#xa1;" horiz-adv-x="686" d="M56 -434l233 1290h208l-146 -1290h-295zM275 1180q0 85 59 140q54 50 136 50q64 0 103 -38q18 -19 26.5 -42.5t8.5 -57t-16.5 -68.5t-42.5 -60q-55 -54 -134 -54q-140 0 -140 130z" />
<glyph unicode="&#xa2;" horiz-adv-x="1067" d="M114 416.5q0 141.5 32 256.5t92 209q130 206 343 258l60 253h195l-58 -240q117 -10 175 -37l-68 -255q-97 83 -193 83q-116 0 -203 -124q-94 -134 -94 -344q0 -226 97 -273q34 -16 80 -16q122 0 249 127l77 -138q-75 -109 -216 -161q-53 -20 -117 -27l-42 -233h-195 l45 248q-128 40 -197 162q-62 110 -62 251.5z" />
<glyph unicode="&#xa3;" horiz-adv-x="1397" d="M-35 82q0 7 1.5 28.5t26 54t61.5 57.5q81 53 167 53q67 63 90 212l41 245h-173l24 181h180l21 120q54 346 319 468q95 44 195 44t154 -8.5t95 -22.5q70 -24 117 -69l-132 -198q-13 32 -51 59q-78 53 -140.5 53t-104.5 -16.5t-77 -56.5q-76 -86 -106 -264l-19 -109h308 l-23 -181h-315l-19 -111q-36 -209 -88 -303q-18 -33 -42 -66l73 -23q161 -51 290.5 -51t192.5 47t63 126q0 60 -55 116q-14 15 -27 23l183 144q106 -65 144 -202q11 -41 11 -78t-6 -78t-23 -82.5t-49 -80t-84 -67.5q-115 -66 -308 -66q-147 0 -267.5 31t-183.5 50.5 t-123 32.5q-91 -114 -237 -114q-42 0 -73 28.5t-31 73.5z" />
<glyph unicode="&#xa4;" horiz-adv-x="1540" d="M215 1135l127 128l203 -204q110 69 241 69t243 -76l199 198l127 -128l-200 -200q67 -107 67 -234.5t-72 -237.5l203 -202l-128 -127l-202 202q-109 -71 -239.5 -71t-235.5 66l-202 -202l-128 127l200 200q-76 112 -76 245.5t74 245.5zM533 690q0 -53 19.5 -100.5 t53.5 -83.5q72 -76 176 -76q103 0 176 76q73 77 73 184q0 108 -73 184q-73 77 -176 77q-104 0 -176 -77q-73 -76 -73 -184z" />
<glyph unicode="&#xa5;" horiz-adv-x="1476" d="M168 350l18 156h408l25 200h-407l18 156h331l-287 668h274l211 -557l34 -110l56 114l322 553h308l-479 -668h330l-18 -156h-417l-25 -200h415l-17 -156h-418l-45 -350h-272l42 350h-407z" />
<glyph unicode="&#xa6;" horiz-adv-x="854" d="M337 -186v879h213v-879h-213zM337 901v879h213v-879h-213z" />
<glyph unicode="&#xa7;" horiz-adv-x="1194" d="M99 -69l56 201q60 -74 255 -106q51 -9 90 -9q275 0 275 154q0 78 -139 151q-47 24 -115 55.5t-135 75t-119 98.5q-115 122 -115 279t178 259q-84 100 -84 234q0 152 132 248q140 102 386 102q189 0 313 -71q32 -19 49 -34l-65 -186q-54 73 -233 92q-42 4 -69 4 q-117 0 -181 -40q-67 -42 -67 -107q0 -74 63 -124q33 -26 83 -51l115 -59q354 -180 354 -433q0 -176 -150 -289q60 -78 60 -169.5t-35.5 -161.5t-105.5 -122q-149 -109 -403 -109q-121 0 -210 31q-142 48 -183 87zM401 847q0 -82 59 -141q48 -48 151 -102t144.5 -73 t79.5 -41q45 52 47 132q0 77 -37 120q-63 74 -216 151l-87 43q-44 22 -86 48q-55 -55 -55 -137z" />
<glyph unicode="&#xa8;" horiz-adv-x="813" d="M26 1507.5q0 30.5 13 63t35 55.5q48 50 116 50q62 0 103 -42q36 -39 36 -91q0 -77 -47 -128q-48 -52 -118 -52q-33 0 -57 12q-50 24 -72 78q-9 24 -9 54.5zM487 1572q25 63 84 90q30 14 63.5 14t60.5 -12q50 -22 72 -74q9 -23 9 -53.5t-13 -64t-35 -57.5t-53.5 -38 t-64.5 -14t-57.5 12t-42.5 32q-62 69 -23 165z" />
<glyph unicode="&#xa9;" horiz-adv-x="2110" d="M185 962q0 122 30.5 234.5t87 209.5t135.5 177t176 137q201 119 441 119q239 0 442 -119q196 -115 311 -314q118 -204 118 -443t-118 -445q-177 -307 -520 -404q-112 -31 -233 -31q-238 0 -441 120q-195 115 -312 315q-117 203 -117 444zM327 963q0 -204 96 -379 q145 -263 433 -345q94 -27 199 -27q205 0 375 103q250 151 328 449q25 95 25 198.5t-25 199.5t-71 179t-111 151.5t-146 117.5q-170 103 -375 103t-375 -103q-162 -98 -257 -269q-96 -173 -96 -378zM610 955q0 221 126 355q134 143 370 143q148 0 246 -56l-35 -184 q-85 59 -219 59q-121 0 -194 -82q-71 -81 -71 -208q0 -240 155 -302q49 -20 106 -20q136 0 236 62l44 -148q-81 -67 -221 -91q-47 -8 -124 -8t-159 39.5t-140 105.5q-120 137 -120 335z" />
<glyph unicode="&#xaa;" horiz-adv-x="909" d="M93 1022q0 68 18.5 136.5t53.5 130.5t84.5 114.5t110.5 90.5q131 83 285 83q102 0 187 -30l130 27l-153 -839h-193l5 136q-126 -136 -277 -136q-182 0 -234 167q-17 52 -17 120zM330 1068.5q0 -62.5 5 -91t17 -47.5q26 -41 87 -41q80 0 184 124l81 423q-34 18 -79.5 18 t-87.5 -19.5t-75 -52t-58 -74.5t-42 -88q-32 -89 -32 -151.5z" />
<glyph unicode="&#xab;" horiz-adv-x="1937" d="M209 530l27 175l717 396l48 -160l-470 -331l389 -326l-90 -142zM950 530l27 175l717 396l48 -160l-470 -331l389 -326l-90 -142z" />
<glyph unicode="&#xac;" horiz-adv-x="1370" d="M207 664l21 189h960l-62 -531h-217l41 342h-743z" />
<glyph unicode="&#xad;" horiz-adv-x="1706" />
<glyph unicode="&#xae;" horiz-adv-x="2110" d="M183 962q0 122 31 234.5t87 209.5t135.5 177t176.5 137q203 119 442 119t442 -119q197 -116 313 -314q118 -203 118 -443t-118 -445q-116 -199 -313 -315q-204 -120 -442 -120t-442 120q-197 116 -312 315q-118 206 -118 444zM325 963q0 -312 209 -531q133 -139 322 -193 q95 -27 199 -27q203 0 375 103q163 98 258 269q97 174 97 379q0 311 -209 529q-131 138 -322 193q-95 27 -199 27q-202 0 -375 -102q-162 -97 -258 -269q-97 -172 -97 -378zM719 483v962h87l261 7q179 0 275 -80q88 -73 88 -195q0 -253 -193 -310q55 -36 87 -92t49 -92 t30 -59.5t20.5 -36t17.5 -27.5l23 -33q12 -19 30 -44l-230 1q-20 24 -34 51l-30 61q-15 32 -31 70t-36 73q-47 83 -105 103l-48 -1h-60v-358h-201zM920 989q28 -5 70 -5h55q89 0 134.5 39.5t45.5 127.5q0 116 -102 143q-37 9 -100.5 9t-102.5 -11v-303z" />
<glyph unicode="&#xaf;" horiz-adv-x="617" d="M34 1415l11 179h543l-11 -179h-543z" />
<glyph unicode="&#xb0;" horiz-adv-x="928" d="M174 1272q0 148 103 248q102 97 255 97q145 0 245 -100q95 -95 95 -235q0 -150 -105 -250q-103 -97 -254 -97q-75 0 -138 27q-126 54 -177 182q-24 60 -24 128zM346 1272q0 -73 49 -128q50 -55 125 -55q38 0 71 14t57 39q52 56 52 135v22t-13 52t-36 59q-51 54 -125 54 q-77 0 -128 -53q-52 -54 -52 -139z" />
<glyph unicode="&#xb1;" horiz-adv-x="1361" d="M168 15l17 179h887l-17 -179h-887zM212 674l26 210h237l128 -11l12 152l28 255h225l-26 -255l-27 -151l106 10h265l-26 -210h-265l-104 7l-9 -150l-30 -258h-226l30 258l25 150l-132 -7h-237z" />
<glyph unicode="&#xb2;" horiz-adv-x="1163" d="M161 727q184 99 371 254q246 205 246 338.5t-153 133.5q-175 0 -295 -118l-91 119q52 71 163 126q131 67 268 67h49t113.5 -21.5t116.5 -59.5q97 -75 97 -193q0 -314 -505 -608l504 29l-12 -202h-813z" />
<glyph unicode="&#xb3;" horiz-adv-x="1071" d="M118 586l30 149q102 -55 239 -55h35.5t80.5 11t95 35q97 53 97 159q0 59 -39 92t-103 35l-199 -47l28 177q144 33 198.5 68.5t75.5 68t21 64t-7.5 50.5t-24.5 33q-37 32 -108 32q-132 -2 -248 -81l-61 146q173 121 400 121q164 0 250 -74q70 -59 70 -157.5t-61.5 -176 t-163.5 -115.5q127 -9 188 -91q44 -59 44 -146q0 -177 -160 -282q-143 -93 -351 -93q-134 0 -257 45q-40 14 -69 32z" />
<glyph unicode="&#xb4;" horiz-adv-x="562" d="M34 1319l321 425l180 -169q-30 -56 -167 -179q-149 -132 -230 -162z" />
<glyph unicode="&#xb5;" horiz-adv-x="1364" d="M86 -372l173 1198q11 75 -9 104q-6 9 -16 9q-41 0 -91 -50l-56 140q60 69 185 109q50 17 97.5 17t81.5 -11q101 -35 101 -153q0 -22 -6 -64t-11 -83q-30 -232 -37 -284t-11.5 -88.5t-7.5 -58.5l-3 -22q-2 -24 -2 -44q0 -148 130 -148q58 0 128 53q68 53 95 120l101 768 h273l-112 -882q-5 -39 6 -61t27 -22q54 0 114 72l70 -120q-127 -145 -282 -145t-177 140q-57 -70 -99 -95q-78 -45 -171 -45q-74 0 -135 40q-21 15 -32 36l-64 -430h-260z" />
<glyph unicode="&#xb6;" horiz-adv-x="1364" d="M120 1107q0 326 317 427q114 37 278 37q85 0 170 -7q162 -12 214 -12h304l-18 -147l-167 -33l-177 -1372h-235l173 1368h-194l-175 -1368h-234l102 726q-161 4 -257 104q-101 105 -101 277z" />
<glyph unicode="&#xb7;" horiz-adv-x="686" d="M179 741.5q0 47.5 12.5 81.5t36.5 60q53 57 133 57q107 0 132 -80q8 -24 8 -50q0 -88 -50 -139t-123 -51t-111 37t-38 84.5z" />
<glyph unicode="&#xb8;" horiz-adv-x="482" d="M-30 -436l31 177q28 -15 69 -15t71.5 6t53.5 22.5t37 46.5t15 66t1 84t-7 79l89 4l71 -4q33 -47 49 -165q4 -35 4 -67q0 -266 -289 -266q-82 0 -134 13t-61 19z" />
<glyph unicode="&#xb9;" horiz-adv-x="1020" d="M280 1466q144 37 316 122q71 35 100 57l119 -21l-141 -1033h-245l107 787l-246 -52z" />
<glyph unicode="&#xba;" horiz-adv-x="900" d="M99 1088q0 230 153 372q138 129 325 129h5q158 0 254 -99q97 -101 97 -266q0 -233 -149 -373q-136 -126 -333 -126h-6q-144 0 -243 97q-103 102 -103 266zM336 1108.5q0 -113.5 33 -175t88 -62t91 15.5t61.5 43.5t42 63t26.5 74.5q16 68 16 153q0 229 -132 229 q-117 0 -178 -128q-48 -100 -48 -213.5z" />
<glyph unicode="&#xbb;" horiz-adv-x="1937" d="M215 297l470 331l-389 326l90 142l621 -388l-27 -175l-717 -396zM956 297l470 331l-389 326l90 142l621 -388l-27 -175l-717 -396z" />
<glyph unicode="&#xbc;" horiz-adv-x="2560" d="M310 1466q144 37 316 122q71 35 100 57l119 -21l-141 -1033h-245l107 787l-246 -52zM717 0l681 1530h209l-681 -1530h-209zM1291 224l578 888l58 1l173 -104l-468 -639l-73 -89l318 12l35 251l235 23l-34 -265l227 9l-22 -199h-230l-40 -318h-240l44 318h-512z" />
<glyph unicode="&#xbd;" horiz-adv-x="2560" d="M310 1466q144 37 316 122q71 35 100 57l119 -21l-141 -1033h-245l107 787l-246 -52zM716 0l681 1530h209l-681 -1530h-209zM1395 13q184 99 371 254q246 205 246 338.5t-153 133.5q-175 0 -295 -118l-91 119q52 71 163 126q131 67 268 67h49t113.5 -21.5t116.5 -59.5 q97 -75 97 -193q0 -314 -505 -608l504 29l-12 -202h-813z" />
<glyph unicode="&#xbe;" horiz-adv-x="2560" d="M91 614l30 149q102 -55 239 -55h35.5t80.5 11t95 35q97 53 97 159q0 59 -39 92t-103 35l-199 -47l28 177q144 33 198.5 68.5t75.5 68t21 64t-7.5 50.5t-24.5 33q-37 32 -108 32q-132 -2 -248 -81l-61 146q173 121 400 121q164 0 250 -74q70 -59 70 -157.5t-61.5 -176 t-163.5 -115.5q127 -9 188 -91q44 -59 44 -146q0 -177 -160 -282q-143 -93 -351 -93q-134 0 -257 45q-40 14 -69 32zM716 0l681 1530h209l-681 -1530h-209zM1291 224l578 888l58 1l173 -104l-468 -639l-73 -89l318 12l35 251l235 23l-34 -265l227 9l-22 -199h-230l-40 -318 h-240l44 318h-512z" />
<glyph unicode="&#xbf;" horiz-adv-x="1048" d="M67 79q0 88 24.5 155t64 117.5t90.5 88t104 67.5l105 57q111 57 155 118q24 35 24 68t-5.5 53.5t-13 39t-14.5 34t-10 26.5l147 58l17 -1q69 -52 98 -166q9 -35 9 -74.5t-14.5 -78t-46.5 -74.5q-59 -67 -210 -145q-224 -107 -257 -200q-16 -58 -16 -114t25 -103.5 t69 -80.5q90 -69 225 -69q118 0 212 28l-42 -185q-38 -35 -147 -49q-32 -4 -62 -4q-269 0 -408 129q-123 115 -123 305zM456 1275.5q0 72.5 50 123.5t123 51t111 -37t38 -84.5t-12.5 -81.5t-36.5 -60t-57.5 -41.5t-73.5 -15.5t-67 10.5t-43 28.5q-32 34 -32 106.5z" />
<glyph unicode="&#xc0;" horiz-adv-x="1305" d="M-100 -1l744 1531h334l257 -1530l-277 -1l-48 342h-561l-148 -341zM434 537h448l-95 682l-10 118l-47 -121zM476 1850l167 157l277 -342l-108 -93q-76 28 -154 90q-144 116 -182 188z" />
<glyph unicode="&#xc1;" horiz-adv-x="1305" d="M-100 -1l744 1531h334l257 -1530l-277 -1l-48 342h-561l-148 -341zM434 537h448l-95 682l-10 118l-47 -121zM736 1665l277 342l167 -157q-38 -72 -154 -165q-106 -85 -182 -113z" />
<glyph unicode="&#xc2;" horiz-adv-x="1305" d="M-100 -1l744 1531h334l257 -1530l-277 -1l-48 342h-561l-148 -341zM434 537h448l-95 682l-10 118l-47 -121zM459 1661l349 346h179l201 -340l-119 -73l-197 200l-300 -205z" />
<glyph unicode="&#xc3;" horiz-adv-x="1305" d="M-100 -1l744 1531h334l257 -1530l-277 -1l-48 342h-561l-148 -341zM434 537h448l-95 682l-10 118l-47 -121zM435 1792q33 68 121 125q91 58 171 58q69 0 109.5 -26.5t59.5 -44.5l39 -34q44 -37 79 -37t57.5 10t41 26t33.5 35l31 39l102 -117q-28 -75 -113 -134 q-87 -62 -171 -62q-104 0 -179 70q-46 44 -75 57.5t-56.5 14t-48.5 -7.5t-39 -21t-34 -29l-31 -32z" />
<glyph unicode="&#xc4;" horiz-adv-x="1305" d="M-100 -1l744 1531h334l257 -1530l-277 -1l-48 342h-561l-148 -341zM434 537h448l-95 682l-10 118l-47 -121zM455 1809q0 31 14 63t36 55q48 50 114 50q63 0 102 -43q36 -39 36 -90q0 -77 -47 -128q-48 -52 -117 -52q-33 0 -57 12q-50 24 -72 78q-9 24 -9 55zM901 1796 q0 46 13.5 77t35.5 54q48 50 114 50q96 0 131 -87q9 -22 9 -52.5t-13 -64t-35 -57.5t-53.5 -38t-64.5 -14t-57 12t-42 32q-38 42 -38 88z" />
<glyph unicode="&#xc5;" horiz-adv-x="1305" d="M-100 -1l729 1501q-137 60 -137 218q0 144 125 224q103 65 244 65q204 0 269 -141q22 -47 22 -108q0 -179 -170 -253l253 -1505l-277 -1l-48 342h-561l-148 -341zM434 537h448l-95 682l-10 118l-47 -121zM660 1727q0 -56 44 -96q43 -39 102 -39q177 0 177 161 q0 89 -87 122q-26 10 -56.5 10t-62.5 -7.5t-58 -25.5q-59 -41 -59 -125z" />
<glyph unicode="&#xc6;" horiz-adv-x="1874" d="M-125 0l767 1368l-267 27l21 135h1444l-22 -216l-571 5l-58 -432l429 6l-24 -221l-432 12l-64 -474l667 13l-26 -223h-945l48 356h-475l-189 -356h-303zM473 557h396l104 771l-86 8z" />
<glyph unicode="&#xc7;" horiz-adv-x="1173" d="M100 636q0 388 213 646q138 168 338 232q99 32 181 32t125 -5t77.5 -12.5t61.5 -16.5l50 -18l54 -16l-86 -250l-37 25q-91 61 -238 61q-238 0 -358 -228q-99 -186 -99 -436q0 -323 169 -412q57 -31 126 -31t122 10.5t96 26.5q82 29 126 62l38 -208q-70 -54 -212 -89 q-57 -14 -127 -20q32 -87 32 -189q0 -266 -289 -266q-82 0 -134 13t-61 19l31 177q28 -15 69 -15t71.5 6t53.5 22q50 36 52 124q1 28 1 56.5t-2 52.5q-230 28 -346 225q-98 166 -98 422z" />
<glyph unicode="&#xc8;" horiz-adv-x="1171" d="M91 0l206 1530h841l-22 -216l-572 5l-57 -432l428 6l-24 -221l-432 12l-63 -474l666 13l-25 -223h-946zM399 1850l167 157l277 -342l-108 -93q-76 28 -154 90q-144 116 -182 188z" />
<glyph unicode="&#xc9;" horiz-adv-x="1171" d="M91 0l206 1530h841l-22 -216l-572 5l-57 -432l428 6l-24 -221l-432 12l-63 -474l666 13l-25 -223h-946zM659 1665l277 342l167 -157q-38 -72 -154 -165q-106 -85 -182 -113z" />
<glyph unicode="&#xca;" horiz-adv-x="1171" d="M91 0l206 1530h841l-22 -216l-572 5l-57 -432l428 6l-24 -221l-432 12l-63 -474l666 13l-25 -223h-946zM382 1661l349 346h179l201 -340l-119 -73l-197 200l-300 -205z" />
<glyph unicode="&#xcb;" horiz-adv-x="1171" d="M91 0l206 1530h841l-22 -216l-572 5l-57 -432l428 6l-24 -221l-432 12l-63 -474l666 13l-25 -223h-946zM378 1809q0 31 14 63t36 55q48 50 114 50q63 0 102 -43q36 -39 36 -90q0 -77 -47 -128q-48 -52 -117 -52q-33 0 -57 12q-50 24 -72 78q-9 24 -9 55zM824 1796 q0 46 13.5 77t35.5 54q48 50 114 50q96 0 131 -87q9 -22 9 -52.5t-13 -64t-35 -57.5t-53.5 -38t-64.5 -14t-57 12t-42 32q-38 42 -38 88z" />
<glyph unicode="&#xcc;" horiz-adv-x="643" d="M113 0l206 1530h276l-206 -1530h-276zM135 1850l167 157l277 -342l-108 -93q-76 28 -154 90q-144 116 -182 188z" />
<glyph unicode="&#xcd;" horiz-adv-x="643" d="M113 0l206 1530h276l-206 -1530h-276zM395 1665l277 342l167 -157q-38 -72 -154 -165q-106 -85 -182 -113z" />
<glyph unicode="&#xce;" horiz-adv-x="643" d="M113 0l206 1530h276l-206 -1530h-276zM118 1661l349 346h179l201 -340l-119 -73l-197 200l-300 -205z" />
<glyph unicode="&#xcf;" horiz-adv-x="643" d="M113 0l206 1530h276l-206 -1530h-276zM114 1809q0 31 14 63t36 55q48 50 114 50q63 0 102 -43q36 -39 36 -90q0 -77 -47 -128q-48 -52 -117 -52q-33 0 -57 12q-50 24 -72 78q-9 24 -9 55zM560 1796q0 46 13.5 77t35.5 54q48 50 114 50q96 0 131 -87q9 -22 9 -52.5 t-13 -64t-35 -57.5t-53.5 -38t-64.5 -14t-57 12t-42 32q-38 42 -38 88z" />
<glyph unicode="&#xd0;" horiz-adv-x="1408" d="M36 698l20 190h160l87 643h139l342 16q579 0 579 -630q0 -393 -208 -655q-141 -178 -361 -245q-106 -32 -228 -32h-14l-309 16h-146l94 697h-155zM402 215q74 -25 172 -25h24q236 3 366 231q114 198 114 488q0 250 -87 345q-81 90 -273 90q-82 0 -167 -17l-59 -439h339 l-21 -190h-343z" />
<glyph unicode="&#xd1;" horiz-adv-x="1456" d="M97 0l206 1530h257l398 -927l71 -233l16 254l110 906h265l-206 -1530h-245l-402 954l-76 254l-12 -287l-120 -921h-262zM493 1792q33 68 121 125q91 58 171 58q69 0 109.5 -26.5t59.5 -44.5l39 -34q44 -37 79 -37t57.5 10t41 26t33.5 35l31 39l102 -117 q-28 -75 -113 -134q-87 -62 -171 -62q-104 0 -179 70q-46 44 -75 57.5t-56.5 14t-48.5 -7.5t-39 -21t-34 -29l-31 -32z" />
<glyph unicode="&#xd2;" horiz-adv-x="1386" d="M86 605q0 396 197 662q132 177 326 245q97 34 217 34t216 -48.5t161 -131.5q131 -171 131 -443q0 -392 -195 -659q-130 -179 -322 -246q-98 -34 -218.5 -34t-218 48.5t-162.5 131.5q-132 169 -132 441zM371 635q0 -347 152 -419q49 -23 113.5 -23t120 28.5t101.5 78 t81 118.5q110 211 110 478q0 346 -152 416q-49 23 -113.5 23t-120 -29t-101.5 -79.5t-81 -118.5q-110 -212 -110 -473zM516 1850l167 157l277 -342l-108 -93q-76 28 -154 90q-144 116 -182 188z" />
<glyph unicode="&#xd3;" horiz-adv-x="1386" d="M86 605q0 396 197 662q132 177 326 245q97 34 217 34t216 -48.5t161 -131.5q131 -171 131 -443q0 -392 -195 -659q-130 -179 -322 -246q-98 -34 -218.5 -34t-218 48.5t-162.5 131.5q-132 169 -132 441zM371 635q0 -347 152 -419q49 -23 113.5 -23t120 28.5t101.5 78 t81 118.5q110 211 110 478q0 346 -152 416q-49 23 -113.5 23t-120 -29t-101.5 -79.5t-81 -118.5q-110 -212 -110 -473zM776 1665l277 342l167 -157q-38 -72 -154 -165q-106 -85 -182 -113z" />
<glyph unicode="&#xd4;" horiz-adv-x="1386" d="M86 605q0 396 197 662q132 177 326 245q97 34 217 34t216 -48.5t161 -131.5q131 -171 131 -443q0 -392 -195 -659q-130 -179 -322 -246q-98 -34 -218.5 -34t-218 48.5t-162.5 131.5q-132 169 -132 441zM371 635q0 -347 152 -419q49 -23 113.5 -23t120 28.5t101.5 78 t81 118.5q110 211 110 478q0 346 -152 416q-49 23 -113.5 23t-120 -29t-101.5 -79.5t-81 -118.5q-110 -212 -110 -473zM498 1661l349 346h179l201 -340l-119 -73l-197 200l-300 -205z" />
<glyph unicode="&#xd5;" horiz-adv-x="1386" d="M86 605q0 396 197 662q132 177 326 245q97 34 217 34t216 -48.5t161 -131.5q131 -171 131 -443q0 -392 -195 -659q-130 -179 -322 -246q-98 -34 -218.5 -34t-218 48.5t-162.5 131.5q-132 169 -132 441zM371 635q0 -347 152 -419q49 -23 113.5 -23t120 28.5t101.5 78 t81 118.5q110 211 110 478q0 346 -152 416q-49 23 -113.5 23t-120 -29t-101.5 -79.5t-81 -118.5q-110 -212 -110 -473zM474 1792q33 68 121 125q91 58 171 58q69 0 109.5 -26.5t59.5 -44.5l39 -34q44 -37 79 -37t57.5 10t41 26t33.5 35l31 39l102 -117q-28 -75 -113 -134 q-87 -62 -171 -62q-104 0 -179 70q-46 44 -75 57.5t-56.5 14t-48.5 -7.5t-39 -21t-34 -29l-31 -32z" />
<glyph unicode="&#xd6;" horiz-adv-x="1386" d="M86 605q0 396 197 662q132 177 326 245q97 34 217 34t216 -48.5t161 -131.5q131 -171 131 -443q0 -392 -195 -659q-130 -179 -322 -246q-98 -34 -218.5 -34t-218 48.5t-162.5 131.5q-132 169 -132 441zM371 635q0 -347 152 -419q49 -23 113.5 -23t120 28.5t101.5 78 t81 118.5q110 211 110 478q0 346 -152 416q-49 23 -113.5 23t-120 -29t-101.5 -79.5t-81 -118.5q-110 -212 -110 -473zM494 1809q0 31 14 63t36 55q48 50 114 50q63 0 102 -43q36 -39 36 -90q0 -77 -47 -128q-48 -52 -117 -52q-33 0 -57 12q-50 24 -72 78q-9 24 -9 55z M940 1796q0 46 13.5 77t35.5 54q48 50 114 50q96 0 131 -87q9 -22 9 -52.5t-13 -64t-35 -57.5t-53.5 -38t-64.5 -14t-57 12t-42 32q-38 42 -38 88z" />
<glyph unicode="&#xd7;" horiz-adv-x="1384" d="M199 446l384 332l-307 332l170 154l286 -356l374 356l138 -165l-388 -332l311 -332l-171 -154l-290 356l-370 -355z" />
<glyph unicode="&#xd8;" horiz-adv-x="1386" d="M86 606q0 396 197 662q132 177 326 245q97 34 230 34t253 -78l125 201l89 -49l-136 -217q164 -172 164 -480q0 -392 -195 -659q-130 -179 -322 -246q-98 -34 -209 -34q-169 0 -291 85l-130 -202l-89 49l144 220q-156 170 -156 469zM371 636q0 -170 34 -268l546 906 q-62 62 -169 62q-121 0 -220 -108q-89 -98 -142 -268q-49 -156 -49 -324zM459 267q63 -73 179 -73q121 0 220 106q88 95 142 266q49 157 49 331q0 177 -39 280z" />
<glyph unicode="&#xd9;" horiz-adv-x="1402" d="M130 446q0 50 13 149l125 935h276l-120 -895q-12 -94 -11 -208q2 -227 239 -227q144 0 221 97q81 101 115 342l119 891h273l-122 -918q-45 -336 -203 -485q-152 -143 -444 -143q-122 0 -212 31q-269 93 -269 431zM499 1850l167 157l277 -342l-108 -93q-76 28 -154 90 q-144 116 -182 188z" />
<glyph unicode="&#xda;" horiz-adv-x="1402" d="M130 446q0 50 13 149l125 935h276l-120 -895q-12 -94 -11 -208q2 -227 239 -227q144 0 221 97q81 101 115 342l119 891h273l-122 -918q-45 -336 -203 -485q-152 -143 -444 -143q-122 0 -212 31q-269 93 -269 431zM759 1665l277 342l167 -157q-38 -72 -154 -165 q-106 -85 -182 -113z" />
<glyph unicode="&#xdb;" horiz-adv-x="1402" d="M130 446q0 50 13 149l125 935h276l-120 -895q-12 -94 -11 -208q2 -227 239 -227q144 0 221 97q81 101 115 342l119 891h273l-122 -918q-45 -336 -203 -485q-152 -143 -444 -143q-122 0 -212 31q-269 93 -269 431zM482 1661l349 346h179l201 -340l-119 -73l-197 200 l-300 -205z" />
<glyph unicode="&#xdc;" horiz-adv-x="1402" d="M130 446q0 50 13 149l125 935h276l-120 -895q-12 -94 -11 -208q2 -227 239 -227q144 0 221 97q81 101 115 342l119 891h273l-122 -918q-45 -336 -203 -485q-152 -143 -444 -143q-122 0 -212 31q-269 93 -269 431zM478 1809q0 31 14 63t36 55q48 50 114 50q63 0 102 -43 q36 -39 36 -90q0 -77 -47 -128q-48 -52 -117 -52q-33 0 -57 12q-50 24 -72 78q-9 24 -9 55zM924 1796q0 46 13.5 77t35.5 54q48 50 114 50q96 0 131 -87q9 -22 9 -52.5t-13 -64t-35 -57.5t-53.5 -38t-64.5 -14t-57 12t-42 32q-38 42 -38 88z" />
<glyph unicode="&#xdd;" horiz-adv-x="1130" d="M89 1530h292l195 -608l28 -105l48 105l348 608h303l-597 -940l-80 -590h-271l80 590zM622 1665l277 342l167 -157q-38 -72 -154 -165q-106 -85 -182 -113z" />
<glyph unicode="&#xde;" horiz-adv-x="1258" d="M93 0l204 1530h279l-33 -246q90 9 173 9q237 0 366 -101q131 -104 131 -313q0 -271 -169 -439q-175 -176 -466 -176q-60 0 -104 4l-65 7l-36 -275h-280zM437 487q44 -12 140 -12t161.5 26t109.5 75q91 105 91 299q0 220 -274 220q-79 0 -148 -13h-1z" />
<glyph unicode="&#xdf;" horiz-adv-x="1255" d="M71 2l121 927q57 407 258 554q112 82 252 97q64 7 133.5 7t136.5 -19t116 -56q102 -80 102 -222q0 -173 -122 -287q-78 -73 -100 -108t-22 -70.5t28 -80.5t61.5 -90t56 -79.5t40.5 -73.5q40 -87 40 -172t-28.5 -147.5t-83.5 -106.5q-112 -91 -312 -91q-119 0 -218 30 q-27 8 -43 17l25 226q43 -47 138 -69q29 -7 66.5 -7t72.5 7.5t59 23.5q46 33 46 112q0 68 -64 158l-32 45q-124 161 -124 262q0 91 72 173l45 49q101 97 125 183q9 35 9 69t-10 59t-29 44q-42 40 -105 40t-112 -25t-90 -87q-86 -129 -124 -425l-113 -867h-271z" />
<glyph unicode="&#xe0;" horiz-adv-x="1207" d="M76 414q0 284 163 498q114 151 298 212q94 32 203 32t243 -39l149 39l-159 -1156h-246l14 217q-90 -157 -230 -213q-52 -20 -125.5 -20t-135 32.5t-100.5 90.5q-74 112 -74 307zM337 1575l181 169l311 -426l-104 -84q-74 29 -213 152q-142 125 -175 189zM363 437 q0 -257 116 -257q81 0 167 106q66 79 120 200l67 480q-45 14 -111 14t-116 -23.5t-89.5 -64t-68.5 -94.5t-48 -114q-37 -117 -37 -247z" />
<glyph unicode="&#xe1;" horiz-adv-x="1207" d="M76 414q0 284 163 498q114 151 298 212q94 32 203 32t243 -39l149 39l-159 -1156h-246l14 217q-90 -157 -230 -213q-52 -20 -125.5 -20t-135 32.5t-100.5 90.5q-74 112 -74 307zM363 437q0 -257 116 -257q81 0 167 106q66 79 120 200l67 480q-45 14 -111 14t-116 -23.5 t-89.5 -64t-68.5 -94.5t-48 -114q-37 -117 -37 -247zM631 1319l321 425l180 -169q-30 -56 -167 -179q-149 -132 -230 -162z" />
<glyph unicode="&#xe2;" horiz-adv-x="1207" d="M76 414q0 284 163 498q114 151 298 212q94 32 203 32t243 -39l149 39l-159 -1156h-246l14 217q-90 -157 -230 -213q-52 -20 -125.5 -20t-135 32.5t-100.5 90.5q-74 112 -74 307zM363 437q0 -257 116 -257q81 0 167 106q66 79 120 200l67 480q-45 14 -111 14t-116 -23.5 t-89.5 -64t-68.5 -94.5t-48 -114q-37 -117 -37 -247zM383 1286l349 374h179l201 -374l-124 -68l-196 219l-301 -223z" />
<glyph unicode="&#xe3;" horiz-adv-x="1207" d="M76 414q0 284 163 498q114 151 298 212q94 32 203 32t243 -39l149 39l-159 -1156h-246l14 217q-90 -157 -230 -213q-52 -20 -125.5 -20t-135 32.5t-100.5 90.5q-74 112 -74 307zM344 1491q36 69 122 125q91 58 170 58q96 0 169.5 -73.5t113.5 -73.5t62.5 10t40.5 26 t34 35l30 39l102 -117q-29 -76 -112 -134q-87 -62 -172 -62q-103 0 -178 73q-46 45 -75 59t-56.5 14.5t-48.5 -7.5t-39.5 -21t-34.5 -29l-31 -32zM363 437q0 -257 116 -257q81 0 167 106q66 79 120 200l67 480q-45 14 -111 14t-116 -23.5t-89.5 -64t-68.5 -94.5t-48 -114 q-37 -117 -37 -247z" />
<glyph unicode="&#xe4;" horiz-adv-x="1207" d="M76 414q0 284 163 498q114 151 298 212q94 32 203 32t243 -39l149 39l-159 -1156h-246l14 217q-90 -157 -230 -213q-52 -20 -125.5 -20t-135 32.5t-100.5 90.5q-74 112 -74 307zM363 437q0 -257 116 -257q81 0 167 106q66 79 120 200l67 480q-45 14 -111 14t-116 -23.5 t-89.5 -64t-68.5 -94.5t-48 -114q-37 -117 -37 -247zM401 1507.5q0 30.5 13 63t35 55.5q48 50 116 50q62 0 103 -42q36 -39 36 -91q0 -77 -47 -128q-48 -52 -118 -52q-33 0 -57 12q-50 24 -72 78q-9 24 -9 54.5zM862 1572q25 63 84 90q30 14 63.5 14t60.5 -12q50 -22 72 -74 q9 -23 9 -53.5t-13 -64t-35 -57.5t-53.5 -38t-64.5 -14t-57.5 12t-42.5 32q-62 69 -23 165z" />
<glyph unicode="&#xe5;" horiz-adv-x="1207" d="M76 414q0 284 163 498q114 151 298 212q94 32 203 32t243 -39l149 39l-159 -1156h-246l14 217q-90 -157 -230 -213q-52 -20 -125.5 -20t-135 32.5t-100.5 90.5q-74 112 -74 307zM363 437q0 -257 116 -257q81 0 167 106q66 79 120 200l67 480q-45 14 -111 14t-116 -23.5 t-89.5 -64t-68.5 -94.5t-48 -114q-37 -117 -37 -247zM471 1504q0 143 125 224q103 67 243 67q207 0 270 -142q21 -47 21 -115t-31 -122.5t-81 -90.5t-115 -54t-133.5 -18t-124 16.5t-94.5 48.5q-80 66 -80 186zM638 1513q0 -56 44 -96q43 -39 102 -39q178 0 178 161 q0 89 -87 122q-26 10 -57 10t-63 -7.5t-58 -25.5q-59 -41 -59 -125z" />
<glyph unicode="&#xe6;" horiz-adv-x="1702" d="M75 414q0 284 169 498q119 151 309 212q98 32 237.5 32t254.5 -72q130 72 283 72t236 -72q75 -65 75 -184q0 -332 -495 -464q-75 -20 -145 -32v-12q0 -210 177 -210q126 0 258 100q39 29 70 61l73 -141q-56 -79 -165 -140q-138 -78 -291 -78q-238 0 -345 178 q-32 53 -49 115q-91 -196 -229 -267q-53 -26 -115 -26q-308 0 -308 430zM362 434.5q0 -129.5 25 -186.5t81 -57q62 0 132 90q57 71 109 188q12 289 174 481q-70 30 -138.5 30t-122 -23.5t-96 -64t-73.5 -94.5t-51 -114q-40 -120 -40 -249.5zM999 563q117 7 237 91 q133 93 133 211.5t-102 118.5q-147 0 -230 -242q-31 -90 -38 -179z" />
<glyph unicode="&#xe7;" horiz-adv-x="931" d="M80 416q0 160 41.5 289t119 229.5t188.5 161t251 60.5q151 0 239 -40l-68 -255q-97 83 -193 83q-116 0 -203 -124q-94 -134 -94 -344q0 -226 97 -273q34 -16 80 -16q122 0 249 127l77 -138q-60 -90 -184 -149q-45 -21 -99 -32q35 -89 35 -197q0 -266 -289 -266 q-82 0 -134 13t-61 19l31 177q28 -15 69 -15t71.5 6t53.5 22q50 36 52 124q1 29 1 58t-2 53q-164 21 -250 150q-78 117 -78 277z" />
<glyph unicode="&#xe8;" horiz-adv-x="1074" d="M79 431q0 154 48 288.5t130.5 230.5t195.5 151t219.5 55t165 -19t97.5 -53q75 -65 75 -184q0 -332 -495 -464q-75 -20 -145 -32v-12q0 -210 177 -210q126 0 258 100q39 29 70 61l73 -141q-56 -79 -165 -140q-138 -78 -270 -78t-211 38q-223 109 -223 409zM266 1575 l181 169l311 -426l-104 -84q-74 29 -213 152q-142 125 -175 189zM370 563q117 7 237 91q133 93 133 211.5t-102 118.5q-147 0 -230 -242q-31 -90 -38 -179z" />
<glyph unicode="&#xe9;" horiz-adv-x="1074" d="M79 431q0 154 48 288.5t130.5 230.5t195.5 151t219.5 55t165 -19t97.5 -53q75 -65 75 -184q0 -332 -495 -464q-75 -20 -145 -32v-12q0 -210 177 -210q126 0 258 100q39 29 70 61l73 -141q-56 -79 -165 -140q-138 -78 -270 -78t-211 38q-223 109 -223 409zM370 563 q117 7 237 91q133 93 133 211.5t-102 118.5q-147 0 -230 -242q-31 -90 -38 -179zM560 1319l321 425l180 -169q-30 -56 -167 -179q-149 -132 -230 -162z" />
<glyph unicode="&#xea;" horiz-adv-x="1074" d="M79 431q0 154 48 288.5t130.5 230.5t195.5 151t219.5 55t165 -19t97.5 -53q75 -65 75 -184q0 -332 -495 -464q-75 -20 -145 -32v-12q0 -210 177 -210q126 0 258 100q39 29 70 61l73 -141q-56 -79 -165 -140q-138 -78 -270 -78t-211 38q-223 109 -223 409zM312 1286 l349 374h179l201 -374l-124 -68l-196 219l-301 -223zM370 563q117 7 237 91q133 93 133 211.5t-102 118.5q-147 0 -230 -242q-31 -90 -38 -179z" />
<glyph unicode="&#xeb;" horiz-adv-x="1074" d="M79 431q0 154 48 288.5t130.5 230.5t195.5 151t219.5 55t165 -19t97.5 -53q75 -65 75 -184q0 -332 -495 -464q-75 -20 -145 -32v-12q0 -210 177 -210q126 0 258 100q39 29 70 61l73 -141q-56 -79 -165 -140q-138 -78 -270 -78t-211 38q-223 109 -223 409zM330 1507.5 q0 30.5 13 63t35 55.5q48 50 116 50q62 0 103 -42q36 -39 36 -91q0 -77 -47 -128q-48 -52 -118 -52q-33 0 -57 12q-50 24 -72 78q-9 24 -9 54.5zM370 563q117 7 237 91q133 93 133 211.5t-102 118.5q-147 0 -230 -242q-31 -90 -38 -179zM791 1572q25 63 84 90q30 14 63.5 14 t60.5 -12q50 -22 72 -74q9 -23 9 -53.5t-13 -64t-35 -57.5t-53.5 -38t-64.5 -14t-57.5 12t-42.5 32q-62 69 -23 165z" />
<glyph unicode="&#xec;" horiz-adv-x="624" d="M15 1575l181 169l311 -426l-104 -84q-74 29 -213 152q-142 125 -175 189zM102 0l156 1140h277l-157 -1140h-276z" />
<glyph unicode="&#xed;" horiz-adv-x="624" d="M102 0l156 1140h277l-157 -1140h-276zM308 1319l321 425l180 -169q-30 -56 -167 -179q-149 -132 -230 -162z" />
<glyph unicode="&#xee;" horiz-adv-x="624" d="M60 1286l349 374h179l201 -374l-124 -68l-196 219l-301 -223zM102 0l156 1140h277l-157 -1140h-276z" />
<glyph unicode="&#xef;" horiz-adv-x="624" d="M78 1507.5q0 30.5 13 63t35 55.5q48 50 116 50q62 0 103 -42q36 -39 36 -91q0 -77 -47 -128q-48 -52 -118 -52q-33 0 -57 12q-50 24 -72 78q-9 24 -9 54.5zM102 0l156 1140h277l-157 -1140h-276zM539 1572q25 63 84 90q30 14 63.5 14t60.5 -12q50 -22 72 -74 q9 -23 9 -53.5t-13 -64t-35 -57.5t-53.5 -38t-64.5 -14t-57.5 12t-42.5 32q-62 69 -23 165z" />
<glyph unicode="&#xf0;" horiz-adv-x="1197" d="M78 432q0 174 43.5 308t118.5 226q156 191 395 191q161 0 218 -80q-20 196 -154 343l-128 -143l-116 101l138 141q-119 99 -234 130l52 149q146 -37 301 -144q130 149 143 165l108 -102l-137 -155q291 -276 291 -726q0 -370 -155 -602q-166 -250 -456 -250 q-205 0 -324 146q-104 128 -104 302zM370 465.5q0 -96.5 10.5 -145.5t31.5 -86.5t52 -59.5t76 -22t89.5 33.5t80.5 90.5q92 147 124 496q3 33 3 52.5t-11 48t-36 55.5q-60 67 -149 67q-172 0 -243 -309q-28 -124 -28 -220.5z" />
<glyph unicode="&#xf1;" horiz-adv-x="1257" d="M80 2l155 1138h263l-16 -212q125 162 290 211q56 17 115.5 17t106 -16t78.5 -51q64 -72 64 -229q0 -40 -8 -109l-16 -124q-7 -54 -16 -116l-74 -509h-276l54 382q10 66 21 147q40 293 25 345q-15 55 -88 55q-107 0 -236 -135q-39 -40 -69 -85l-97 -709h-276zM346 1491 q36 69 122 125q91 58 170 58q96 0 169.5 -73.5t113.5 -73.5t62.5 10t40.5 26t34 35l30 39l102 -117q-29 -76 -112 -134q-87 -62 -172 -62q-103 0 -178 73q-46 45 -75 59t-56.5 14.5t-48.5 -7.5t-39.5 -21t-34.5 -29l-31 -32z" />
<glyph unicode="&#xf2;" horiz-adv-x="1158" d="M76 466q0 276 159 476q107 135 268 188q82 26 181 26t174 -35t123 -97q97 -125 97 -350q0 -277 -157 -476q-167 -214 -442 -214q-103 0 -178 35q-225 104 -225 447zM272 1575l181 169l311 -426l-104 -84q-74 29 -213 152q-142 125 -175 189zM355 452q0 -287 163 -287 q137 0 214 177q64 146 64 342q0 154 -38.5 223t-119.5 69q-136 0 -215 -180q-68 -152 -68 -344z" />
<glyph unicode="&#xf3;" horiz-adv-x="1158" d="M76 466q0 276 159 476q107 135 268 188q82 26 181 26t174 -35t123 -97q97 -125 97 -350q0 -277 -157 -476q-167 -214 -442 -214q-103 0 -178 35q-225 104 -225 447zM355 452q0 -287 163 -287q137 0 214 177q64 146 64 342q0 154 -38.5 223t-119.5 69q-136 0 -215 -180 q-68 -152 -68 -344zM566 1319l321 425l180 -169q-30 -56 -167 -179q-149 -132 -230 -162z" />
<glyph unicode="&#xf4;" horiz-adv-x="1158" d="M76 466q0 276 159 476q107 135 268 188q82 26 181 26t174 -35t123 -97q97 -125 97 -350q0 -277 -157 -476q-167 -214 -442 -214q-103 0 -178 35q-225 104 -225 447zM318 1286l349 374h179l201 -374l-124 -68l-196 219l-301 -223zM355 452q0 -287 163 -287q137 0 214 177 q64 146 64 342q0 154 -38.5 223t-119.5 69q-136 0 -215 -180q-68 -152 -68 -344z" />
<glyph unicode="&#xf5;" horiz-adv-x="1158" d="M76 466q0 276 159 476q107 135 268 188q82 26 181 26t174 -35t123 -97q97 -125 97 -350q0 -277 -157 -476q-167 -214 -442 -214q-103 0 -178 35q-225 104 -225 447zM279 1491q36 69 122 125q91 58 170 58q96 0 169.5 -73.5t113.5 -73.5t62.5 10t40.5 26t34 35l30 39 l102 -117q-29 -76 -112 -134q-87 -62 -172 -62q-103 0 -178 73q-46 45 -75 59t-56.5 14.5t-48.5 -7.5t-39.5 -21t-34.5 -29l-31 -32zM355 452q0 -287 163 -287q137 0 214 177q64 146 64 342q0 154 -38.5 223t-119.5 69q-136 0 -215 -180q-68 -152 -68 -344z" />
<glyph unicode="&#xf6;" horiz-adv-x="1158" d="M76 466q0 276 159 476q107 135 268 188q82 26 181 26t174 -35t123 -97q97 -125 97 -350q0 -277 -157 -476q-167 -214 -442 -214q-103 0 -178 35q-225 104 -225 447zM336 1507.5q0 30.5 13 63t35 55.5q48 50 116 50q62 0 103 -42q36 -39 36 -91q0 -77 -47 -128 q-48 -52 -118 -52q-33 0 -57 12q-50 24 -72 78q-9 24 -9 54.5zM355 452q0 -287 163 -287q137 0 214 177q64 146 64 342q0 154 -38.5 223t-119.5 69q-136 0 -215 -180q-68 -152 -68 -344zM797 1572q25 63 84 90q30 14 63.5 14t60.5 -12q50 -22 72 -74q9 -23 9 -53.5t-13 -64 t-35 -57.5t-53.5 -38t-64.5 -14t-57.5 12t-42.5 32q-62 69 -23 165z" />
<glyph unicode="&#xf7;" horiz-adv-x="1368" d="M233 675l27 211l914 -1l-26 -210h-915zM493 334.5q0 33.5 16.5 68.5t42.5 60q56 54 133 54q140 0 140 -130q0 -84 -59 -139q-54 -50 -134 -50q-63 0 -102 38q-19 18 -28 41.5t-9 57zM596 1167q3 49 19 81.5t42 57.5q56 54 132 54q111 0 135 -84q18 -64 -5 -112.5 t-49.5 -72.5t-60.5 -37t-69 -13t-61 10t-45 28q-41 39 -38 88z" />
<glyph unicode="&#xf8;" horiz-adv-x="1158" d="M76 468q0 276 159 476q107 135 268 188q82 26 178.5 26t172.5 -34l113 179l89 -49l-117 -184q139 -123 139 -394q0 -277 -157 -476q-167 -214 -442 -214q-116 0 -198 44l-107 -162l-89 49l115 174q-124 126 -124 377zM355 454q0 -78 10 -127l359 623q-34 28 -84.5 28 t-90.5 -23.5t-71.5 -63.5t-54.5 -93q-68 -152 -68 -344zM413 212q39 -45 96.5 -45t97.5 23t71 62t54 92q64 146 64 342q0 106 -15 161z" />
<glyph unicode="&#xf9;" horiz-adv-x="1233" d="M111 253v33q0 43 15 162q27 206 36 265l60 427h274q-34 -251 -41 -310l-38 -287q-23 -161 -23 -231t27.5 -94.5t68.5 -24.5t79 18.5t76 49.5q70 59 133 157l98 722h276l-153 -1140h-250l13 205q-111 -156 -266 -207q-55 -18 -114 -18q-271 0 -271 273zM307 1575l181 169 l311 -426l-104 -84q-74 29 -213 152q-142 125 -175 189z" />
<glyph unicode="&#xfa;" horiz-adv-x="1233" d="M111 253v33q0 43 15 162q27 206 36 265l60 427h274q-34 -251 -41 -310l-38 -287q-23 -161 -23 -231t27.5 -94.5t68.5 -24.5t79 18.5t76 49.5q70 59 133 157l98 722h276l-153 -1140h-250l13 205q-111 -156 -266 -207q-55 -18 -114 -18q-271 0 -271 273zM601 1319l321 425 l180 -169q-30 -56 -167 -179q-149 -132 -230 -162z" />
<glyph unicode="&#xfb;" horiz-adv-x="1233" d="M111 253v33q0 43 15 162q27 206 36 265l60 427h274q-34 -251 -41 -310l-38 -287q-23 -161 -23 -231t27.5 -94.5t68.5 -24.5t79 18.5t76 49.5q70 59 133 157l98 722h276l-153 -1140h-250l13 205q-111 -156 -266 -207q-55 -18 -114 -18q-271 0 -271 273zM353 1286l349 374 h179l201 -374l-124 -68l-196 219l-301 -223z" />
<glyph unicode="&#xfc;" horiz-adv-x="1233" d="M111 253v33q0 43 15 162q27 206 36 265l60 427h274q-34 -251 -41 -310l-38 -287q-23 -161 -23 -231t27.5 -94.5t68.5 -24.5t79 18.5t76 49.5q70 59 133 157l98 722h276l-153 -1140h-250l13 205q-111 -156 -266 -207q-55 -18 -114 -18q-271 0 -271 273zM371 1507.5 q0 30.5 13 63t35 55.5q48 50 116 50q62 0 103 -42q36 -39 36 -91q0 -77 -47 -128q-48 -52 -118 -52q-33 0 -57 12q-50 24 -72 78q-9 24 -9 54.5zM832 1572q25 63 84 90q30 14 63.5 14t60.5 -12q50 -22 72 -74q9 -23 9 -53.5t-13 -64t-35 -57.5t-53.5 -38t-64.5 -14t-57.5 12 t-42.5 32q-62 69 -23 165z" />
<glyph unicode="&#xfd;" horiz-adv-x="1095" d="M-144 -458l73 203q76 -46 134 -46t100 13t85 46q85 64 193 224h-164l-60 375l-112 783h284l115 -1045q15 27 30 59l31 63q32 69 50 122q80 158 109 271q64 248 66 458q1 37 2 72h256q3 -38 3 -75q0 -227 -59 -420.5t-130 -343.5q-123 -260 -270 -452l-99 -128 q-180 -230 -435 -230q-100 0 -202 51zM465 1319l321 425l180 -169q-30 -56 -167 -179q-149 -132 -230 -162z" />
<glyph unicode="&#xfe;" horiz-adv-x="1227" d="M10 -504l70 496l222 1644h264l-70 -574l-27 -147q90 161 237 219q54 22 128.5 22t136 -33t99.5 -91q75 -112 75 -308q0 -283 -165 -498q-117 -151 -300 -211q-95 -31 -176.5 -31t-158.5 12l-63 -500h-272zM380 174q42 -13 110 -13t119 23.5t91 63.5t69.5 93.5t48.5 114.5 q39 119 39 246q0 256 -115 256q-111 0 -229 -182q-42 -64 -73 -136z" />
<glyph unicode="&#xff;" horiz-adv-x="1095" d="M-144 -458l73 203q76 -46 134 -46t100 13t85 46q85 64 193 224h-164l-60 375l-112 783h284l115 -1045q15 27 30 59l31 63q32 69 50 122q80 158 109 271q64 248 66 458q1 37 2 72h256q3 -38 3 -75q0 -227 -59 -420.5t-130 -343.5q-123 -260 -270 -452l-99 -128 q-180 -230 -435 -230q-100 0 -202 51zM235 1507.5q0 30.5 13 63t35 55.5q48 50 116 50q62 0 103 -42q36 -39 36 -91q0 -77 -47 -128q-48 -52 -118 -52q-33 0 -57 12q-50 24 -72 78q-9 24 -9 54.5zM696 1572q25 63 84 90q30 14 63.5 14t60.5 -12q50 -22 72 -74q9 -23 9 -53.5 t-13 -64t-35 -57.5t-53.5 -38t-64.5 -14t-57.5 12t-42.5 32q-62 69 -23 165z" />
<glyph unicode="&#x152;" horiz-adv-x="2159" d="M86 605q0 396 197 662q132 177 326 245q97 34 208 34q299 0 431 -264l34 248h841l-22 -216l-572 5l-57 -432l428 6l-24 -221l-432 12l-63 -474l666 13l-25 -223h-946l30 227q-196 -243 -498 -243q-249 0 -390 180q-132 169 -132 441zM371 635q0 -347 152 -419 q49 -23 113.5 -23t120 28.5t101.5 78t81 118.5q110 211 110 478q0 346 -152 416q-49 23 -113.5 23t-120 -29t-101.5 -79.5t-81 -118.5q-110 -212 -110 -473z" />
<glyph unicode="&#x153;" horiz-adv-x="1770" d="M76 461q0 277 157 478q169 217 442 217q219 0 319 -163q167 163 401 163q153 0 236 -72q75 -65 75 -184q0 -332 -495 -464q-75 -20 -145 -32v-12q0 -210 177 -210q126 0 258 100q39 29 70 61l73 -141q-56 -79 -165 -140q-138 -78 -291 -78q-221 0 -332 157 q-155 -157 -377 -157q-198 0 -304 130q-99 124 -99 347zM355 448q0 -283 163 -283q186 0 254 317q24 113 23 240q-2 254 -162 254q-135 0 -213 -183q-65 -153 -65 -345zM1066 563q117 7 237 91q133 93 133 211.5t-102 118.5q-147 0 -230 -242q-31 -90 -38 -179z" />
<glyph unicode="&#x178;" horiz-adv-x="1130" d="M89 1530h292l195 -608l28 -105l48 105l348 608h303l-597 -940l-80 -590h-271l80 590zM341 1809q0 31 14 63t36 55q48 50 114 50q63 0 102 -43q36 -39 36 -90q0 -77 -47 -128q-48 -52 -117 -52q-33 0 -57 12q-50 24 -72 78q-9 24 -9 55zM787 1796q0 46 13.5 77t35.5 54 q48 50 114 50q96 0 131 -87q9 -22 9 -52.5t-13 -64t-35 -57.5t-53.5 -38t-64.5 -14t-57 12t-42 32q-38 42 -38 88z" />
<glyph unicode="&#x2c6;" horiz-adv-x="799" d="M42 1286l349 374h179l201 -374l-124 -68l-196 219l-301 -223z" />
<glyph unicode="&#x2dc;" horiz-adv-x="820" d="M-18 1491q36 69 122 125q91 58 170 58q96 0 169.5 -73.5t113.5 -73.5t62.5 10t40.5 26t34 35l30 39l102 -117q-29 -76 -112 -134q-87 -62 -172 -62q-103 0 -178 73q-46 45 -75 59t-56.5 14.5t-48.5 -7.5t-39.5 -21t-34.5 -29l-31 -32z" />
<glyph unicode="&#x2000;" horiz-adv-x="1003" />
<glyph unicode="&#x2001;" horiz-adv-x="2007" />
<glyph unicode="&#x2002;" horiz-adv-x="1003" />
<glyph unicode="&#x2003;" horiz-adv-x="2007" />
<glyph unicode="&#x2004;" horiz-adv-x="669" />
<glyph unicode="&#x2005;" horiz-adv-x="501" />
<glyph unicode="&#x2006;" horiz-adv-x="334" />
<glyph unicode="&#x2007;" horiz-adv-x="334" />
<glyph unicode="&#x2008;" horiz-adv-x="250" />
<glyph unicode="&#x2009;" horiz-adv-x="401" />
<glyph unicode="&#x200a;" horiz-adv-x="111" />
<glyph unicode="&#x2010;" horiz-adv-x="1266" d="M221 671l27 203h839l-28 -203h-838z" />
<glyph unicode="&#x2011;" horiz-adv-x="1266" d="M221 671l27 203h839l-28 -203h-838z" />
<glyph unicode="&#x2012;" horiz-adv-x="1266" d="M221 671l27 203h839l-28 -203h-838z" />
<glyph unicode="&#x2013;" horiz-adv-x="1538" d="M221 671l33 203h1098l-33 -203h-1098z" />
<glyph unicode="&#x2014;" horiz-adv-x="2031" d="M221 671l33 203h1581l-33 -203h-1581z" />
<glyph unicode="&#x2018;" horiz-adv-x="696" d="M198 1265q0 86 33.5 170.5t83.5 148.5q88 113 217 172l95 -126l-2 -22q-59 -29 -105 -109q-55 -93 -55 -203q0 -98 45 -172q14 -24 32 -40l-5 -41l-157 -136q-117 58 -165 217q-17 55 -17 141z" />
<glyph unicode="&#x2019;" horiz-adv-x="696" d="M191 1027l2 22q59 29 105 109q55 93 55 203q0 98 -45 172q-14 24 -32 40l5 41l157 136q117 -58 165 -217q17 -55 17 -141t-33.5 -170.5t-83.5 -148.5q-88 -113 -217 -172z" />
<glyph unicode="&#x201a;" horiz-adv-x="696" d="M56 -412l2 22q59 29 105 109q55 93 55 203q0 98 -45 172q-14 24 -32 40l5 41l157 136q117 -58 165 -217q17 -55 17 -141t-33.5 -170.5t-83.5 -148.5q-88 -113 -217 -172z" />
<glyph unicode="&#x201c;" horiz-adv-x="1205" d="M198 1265q0 86 33.5 170.5t83.5 148.5q88 113 217 172l95 -126l-2 -22q-59 -29 -105 -109q-55 -93 -55 -203q0 -98 45 -172q14 -24 32 -40l-5 -41l-157 -136q-117 58 -165 217q-17 55 -17 141zM707 1265q0 86 33.5 170.5t83.5 148.5q88 113 217 172l95 -126l-2 -22 q-59 -29 -105 -109q-55 -93 -55 -203q0 -98 45 -172q14 -24 32 -40l-5 -41l-157 -136q-117 58 -165 217q-17 55 -17 141z" />
<glyph unicode="&#x201d;" horiz-adv-x="1204" d="M241 1027l2 22q59 29 105 109q55 93 55 203q0 98 -45 172q-14 24 -32 40l5 41l157 136q117 -58 165 -217q17 -55 17 -141t-33.5 -170.5t-83.5 -148.5q-88 -113 -217 -172zM753 1027l2 22q59 29 105 109q55 93 55 203q0 98 -45 172q-14 24 -32 40l5 41l157 136 q117 -58 165 -217q17 -55 17 -141t-33.5 -170.5t-83.5 -148.5q-88 -113 -217 -172z" />
<glyph unicode="&#x201e;" horiz-adv-x="1204" d="M56 -412l2 22q59 29 105 109q55 93 55 203q0 98 -45 172q-14 24 -32 40l5 41l157 136q117 -58 165 -217q17 -55 17 -141t-33.5 -170.5t-83.5 -148.5q-88 -113 -217 -172zM565 -412l2 22q59 29 105 109q55 93 55 203q0 98 -45 172q-14 24 -32 40l5 41l157 136 q117 -58 165 -217q17 -55 17 -141t-33.5 -170.5t-83.5 -148.5q-88 -113 -217 -172z" />
<glyph unicode="&#x2022;" horiz-adv-x="858" d="M233 669.5q0 58.5 19 104t53 82.5q76 83 179 83q75 0 126 -49q50 -49 50 -108.5t-17.5 -106t-50.5 -84t-79.5 -61t-94 -23.5t-79.5 14t-55 38q-51 52 -51 110.5z" />
<glyph unicode="&#x2026;" horiz-adv-x="1579" d="M58 95.5q0 49.5 15.5 84.5t39.5 60q53 54 128 54q141 0 141 -130q0 -85 -59 -140q-53 -50 -144 -50q-51 0 -86 36t-35 85.5zM584 95.5q0 49.5 15.5 84.5t39.5 60q53 54 128 54q141 0 141 -130q0 -85 -59 -140q-53 -50 -144 -50q-51 0 -86 36t-35 85.5zM1110 95.5 q0 49.5 15.5 84.5t39.5 60q53 54 128 54q141 0 141 -130q0 -85 -59 -140q-53 -50 -144 -50q-51 0 -86 36t-35 85.5z" />
<glyph unicode="&#x202f;" horiz-adv-x="401" />
<glyph unicode="&#x2039;" horiz-adv-x="1190" d="M204 530l27 175l717 396l48 -160l-470 -331l389 -326l-90 -142z" />
<glyph unicode="&#x203a;" horiz-adv-x="1190" d="M194 297l470 331l-389 326l90 142l621 -388l-27 -175l-717 -396z" />
<glyph unicode="&#x205f;" horiz-adv-x="501" />
<glyph unicode="&#x20ac;" horiz-adv-x="1389" d="M24 539l20 162h179q4 92 20 176h-174l20 161h198q86 236 265 372t411 136q144 0 256 -36l58 -18l-69 -214q-41 41 -176 60q-45 7 -104 7t-114 -21.5t-101 -61.5q-90 -77 -144 -224h506l-19 -161h-529q-16 -85 -20 -176h526l-17 -162h-509q26 -365 276 -365q153 0 269 75 q34 22 66 45l63 -169q-87 -97 -299 -130q-69 -11 -171.5 -11t-194.5 47t-153 125q-113 144 -136 383h-203z" />
<glyph unicode="&#x2122;" horiz-adv-x="2120" d="M176 1373l25 157h666l-19 -157h-245l-91 -639l-181 -1l91 640h-246zM898 734l149 796h293l92 -416l28 -157l238 573h302l-31 -796h-184l32 502l16 204l-320 -714h-152l-129 548l-35 168l-118 -708h-181z" />
<glyph unicode="&#x25fc;" horiz-adv-x="1140" d="M0 0v1140h1140v-1140h-1140z" />
</font>
</defs>
</svg>
