<?xml version="1.0" standalone="no"?>
<!DOCTYPE svg PUBLIC "-//W3C//DTD SVG 1.1//EN" "http://www.w3.org/Graphics/SVG/1.1/DTD/svg11.dtd" >
<svg xmlns="http://www.w3.org/2000/svg">
<metadata></metadata>
<defs>
<font id="merriweather_sansbold" horiz-adv-x="0" >
<font-face units-per-em="2048" ascent="1638" descent="-410" />
<missing-glyph horiz-adv-x="669" />
<glyph unicode="&#xfb01;" horiz-adv-x="1518" d="M82 924v182l155 34v109q0 296 228 395q88 39 211 39t189 -22v-222q-50 24 -139 24q-177 0 -177 -207v-116h266v-216h-266v-924h-312v924h-155zM1006 1478q0 75 61 132q59 55 138 55q81 0 132 -49q48 -46 48 -121q0 -77 -59 -133q-59 -55 -138 -55q-39 0 -72 12.5 t-57 35.5q-53 49 -53 123zM1032 0v1140h312v-1140h-312z" />
<glyph unicode="&#xfb02;" horiz-adv-x="1530" d="M82 924v182l155 34v109q0 296 228 395q88 39 211 39t189 -22v-222q-50 24 -139 24q-177 0 -177 -207v-116h266v-216h-266v-924h-312v924h-155zM1038 0v1662h312v-1662h-312z" />
<glyph unicode="&#xfb03;" horiz-adv-x="2376" d="M82 924v182l155 34v109q0 296 228 395q88 39 211 39t189 -22v-222q-50 24 -139 24q-177 0 -177 -207v-116h266v-216h-266v-924h-312v924h-155zM940 924v182l155 34v109q0 296 228 395q88 39 211 39t189 -22v-222q-50 24 -139 24q-177 0 -177 -207v-116h266v-216h-266 v-924h-312v924h-155zM1864 1478q0 75 61 132q59 55 138 55q81 0 132 -49q48 -46 48 -121q0 -77 -59 -133q-59 -55 -138 -55q-39 0 -72 12.5t-57 35.5q-53 49 -53 123zM1890 0v1140h312v-1140h-312z" />
<glyph unicode="&#xfb04;" horiz-adv-x="2388" d="M82 924v182l155 34v109q0 296 228 395q88 39 211 39t189 -22v-222q-50 24 -139 24q-177 0 -177 -207v-116h266v-216h-266v-924h-312v924h-155zM940 924v182l155 34v109q0 296 228 395q88 39 211 39t189 -22v-222q-50 24 -139 24q-177 0 -177 -207v-116h266v-216h-266 v-924h-312v924h-155zM1896 0v1662h312v-1662h-312z" />
<glyph />
<glyph horiz-adv-x="682" />
<glyph />
<glyph />
<glyph />
<glyph />
<glyph />
<glyph />
<glyph />
<glyph unicode="&#x9;" />
<glyph unicode="&#xa;" />
<glyph />
<glyph />
<glyph />
<glyph />
<glyph />
<glyph />
<glyph />
<glyph />
<glyph />
<glyph />
<glyph />
<glyph />
<glyph unicode=" "  horiz-adv-x="669" />
<glyph unicode="&#x09;" horiz-adv-x="669" />
<glyph unicode="&#xa0;" horiz-adv-x="669" />
<glyph unicode="!" horiz-adv-x="641" d="M126 173q0 42 15.5 79.5t43.5 67.5q60 63 144 63q130 0 173 -117q13 -35 13 -76.5t-15.5 -80t-43.5 -67.5q-59 -64 -144 -64q-80 0 -133 55t-53 140zM151 1780h347l-34 -1225h-267z" />
<glyph unicode="&#x22;" horiz-adv-x="1245" d="M216 1685h305l-36 -719h-231zM724 1685h305l-36 -719h-231z" />
<glyph unicode="#" horiz-adv-x="1645" d="M196 326v210h206l30 320h-198v202h217l30 315h261l-30 -315h275l29 315h259l-30 -315h204v-202h-223l-30 -320h209v-210h-229l-31 -326h-254l29 326h-279l-31 -326h-258l30 326h-186zM661 536h278l29 320h-276z" />
<glyph unicode="$" horiz-adv-x="1410" d="M223 1117q0 105 30 174.5t83 118.5q100 92 279 118l8 235h183l-7 -226q227 -11 348 -87l-52 -247q-151 97 -332 97q-228 0 -228 -156q0 -77 62 -131q45 -39 168 -104.5t199.5 -112t132.5 -102.5q119 -117 119 -286q0 -189 -127 -300q-122 -108 -335 -122l-5 -211h-184 l6 216q-171 18 -285 60q-33 12 -50 23l45 255q113 -63 274 -87q57 -9 119 -9t105 10t69 29q48 36 48 116q0 78 -60 130q-52 46 -166 102.5t-159.5 83t-87.5 58.5t-78.5 69.5t-63.5 82.5q-58 98 -58 203z" />
<glyph unicode="%" horiz-adv-x="2188" d="M103 1078q0 200 126.5 322.5t313.5 122.5t285 -123.5t98 -326.5t-127 -324.5t-310 -121.5t-284.5 125.5t-101.5 325.5zM352 1080q0 -179 92 -237q30 -19 68 -19q80 0 122.5 65.5t42.5 152t-11 134t-32 80.5q-43 71 -120.5 71t-119.5 -66t-42 -181zM675 0l592 1530h247 l-593 -1530h-246zM1261 464q0 101 35.5 185t95.5 141q122 119 304 119q191 0 294 -129q95 -117 95 -316q0 -209 -131 -334q-120 -116 -298 -118q-191 0 -297 130q-98 122 -98 322zM1510 466q0 -178 93 -237q30 -19 68 -19q80 0 122 65.5t42 152t-10.5 133.5t-30.5 81 q-43 71 -121 71t-120.5 -66t-42.5 -181z" />
<glyph unicode="&#x26;" horiz-adv-x="1542" d="M88 399q0 244 310 390q-103 141 -130 261q-12 54 -12 130.5t31.5 147t89.5 118.5q119 100 322 100q186 0 303 -108q111 -101 111 -256q0 -250 -189 -388q-59 -43 -132 -80q152 -193 285 -337q73 81 73 200q0 70 -10 114.5t-14 65.5h258q20 -88 20 -181q0 -226 -137 -363 q76 -43 199 -47v-167q-60 -15 -143 -15q-163 0 -279 72q-171 -72 -309 -72q-323 0 -485 107.5t-162 307.5zM383 416q0 -199 305 -199q88 0 157 15q-135 146 -317 377q-145 -78 -145 -193zM535 1190.5q0 -58.5 7.5 -91t23.5 -63.5q21 -42 96 -145q193 99 193 288q0 58 -27 93 q-51 65 -127 65t-121 -44t-45 -102.5z" />
<glyph unicode="'" horiz-adv-x="737" d="M216 1685h305l-36 -719h-231z" />
<glyph unicode="(" horiz-adv-x="835" d="M130 705.5q0 164.5 26.5 297t69 243.5t95.5 200t105 154q97 122 173 167l181 -116q-103 -76 -215 -283q-158 -293 -158 -661q0 -487 231 -803q73 -98 142 -148l-181 -116q-135 82 -269 295q-118 189 -172 461q-28 145 -28 309.5z" />
<glyph unicode=")" horiz-adv-x="835" d="M45 -227q103 76 215 283q158 293 158 661q0 487 -231 803q-73 98 -142 148l181 116q135 -82 269 -295q118 -189 172 -461q28 -145 28 -309.5t-26.5 -297t-69 -243.5t-95.5 -200t-105 -154q-97 -122 -173 -167z" />
<glyph unicode="*" horiz-adv-x="1348" d="M130 1347l110 208l243 -164l137 -130q-1 8 -8 33t-15 54q-22 78 -23 95l-26 293h236l-17 -288l-43 -184q10 8 47 47q65 69 86 87l242 166l112 -206l-253 -131l-181 -55l183 -49l258 -123l-119 -214l-233 162l-141 130q1 -8 8 -33t15 -55q21 -78 24 -94l27 -293l-236 -1 l17 293l43 185l-135 -138l-235 -166l-117 207l252 135l181 53q-17 7 -68 18q-96 23 -114 30z" />
<glyph unicode="+" horiz-adv-x="1403" d="M213 656v237h209l162 -7l-6 187v217h246v-217l-7 -187l151 7h222v-237h-222l-151 6l7 -188v-214h-246v214l6 188l-162 -6h-209z" />
<glyph unicode="," horiz-adv-x="693" d="M163 73v87l222 136q87 -33 139 -133q45 -86 45 -178t-22.5 -170.5t-61.5 -142.5q-81 -135 -203 -178l-106 98v26q66 39 95 167q9 39 9 76.5t-11 74t-29 66.5q-40 69 -77 71z" />
<glyph unicode="-" horiz-adv-x="1360" d="M255 644v245h850v-245h-850z" />
<glyph unicode="." horiz-adv-x="641" d="M126 172q0 41 16 79.5t44 68.5q59 63 144 63q84 0 136 -55q49 -54 49 -137v-24t-15 -58.5t-42 -66.5q-60 -64 -145 -64q-80 0 -133 55q-54 56 -54 139z" />
<glyph unicode="/" horiz-adv-x="864" d="M24 -363l561 1962h255l-561 -1962h-255z" />
<glyph unicode="0" horiz-adv-x="1409" d="M124 643.5q0 137.5 46 257.5t125 201q164 170 427 170q308 0 448 -186q115 -155 115 -441q0 -299 -160 -480t-428 -181q-299 0 -448 200q-68 92 -96.5 207t-28.5 252.5zM439 651q0 -184 69 -317t206 -133q189 0 240 243q16 80 16 175t-15 173t-47 136q-70 127 -204 127 q-126 0 -196 -107q-69 -107 -69 -297z" />
<glyph unicode="1" horiz-adv-x="1004" d="M127 1067q180 49 383 176q31 19 50 35l154 -25l-2 -1253h-321v929q-67 -16 -238 -47z" />
<glyph unicode="2" horiz-adv-x="1361" d="M143 155q507 282 636 549q32 67 32 122t-12.5 93t-38.5 65q-56 60 -162 60q-140 0 -268 -84q-36 -24 -62 -50l-117 183q120 129 331 180q77 19 190 19t206 -33.5t151 -88.5q109 -105 109 -275q0 -353 -486 -652l557 21v-264h-1023z" />
<glyph unicode="3" horiz-adv-x="1170" d="M77 1129q87 91 300 137q70 15 166.5 15t187.5 -26t152 -74q121 -95 121 -264q0 -197 -164 -323q-49 -37 -105 -63q172 -15 268 -131q81 -98 81 -217.5t-49 -212t-138 -160.5q-190 -145 -493 -145q-152 0 -281 46l-1 204q102 -23 192 -23t171 17.5t140 52.5 q127 74 127 205q0 178 -152 229q-47 16 -85 16h-49l-139 -36l-42 198q148 31 244 80q154 87 154 226q0 155 -207 155q-143 0 -252 -67q-30 -18 -54 -34z" />
<glyph unicode="4" horiz-adv-x="1412" d="M100 133l560 1201h73l244 -123l-461 -850l-76 -127h388l38 410h262v-410h233v-234h-233v-376h-300v376h-652z" />
<glyph unicode="5" horiz-adv-x="1293" d="M192 -341l1 218q40 -2 121.5 -2t184.5 26t177 73q156 99 156 260q0 110 -65 162q-69 55 -221 55q-91 0 -297 -66l-50 30l66 837h847l-28 -267h-593l-33 -335q152 35 254.5 35t184.5 -31.5t139 -89.5q115 -117 115 -319q0 -125 -57.5 -234t-165.5 -189 q-231 -174 -601 -176q-90 0 -135 13z" />
<glyph unicode="6" horiz-adv-x="1414" d="M127 586q0 278 145 517q126 209 339 354q192 131 390 163l76 -187q-179 -45 -327 -175q-203 -177 -268 -432q-21 -83 -21 -172.5t12 -170t42 -144.5q64 -137 204 -137q123 0 189 78q61 71 61 203q0 231 -117 281q-35 14 -96 14t-133 -36l-63 181q56 60 188 85 q47 9 127.5 9t161 -37t135.5 -100q113 -129 113 -326q0 -244 -145 -398q-160 -172 -450 -172q-258 0 -414 178q-149 169 -149 424z" />
<glyph unicode="7" horiz-adv-x="1286" d="M106 997v274h1001l77 -117l-602 -1548l-318 92q218 452 369.5 813t202.5 485z" />
<glyph unicode="8" horiz-adv-x="1356" d="M129 385q0 244 286 394q-235 158 -235 395q0 176 135 282q137 109 367 109q227 0 360 -99q130 -95 130 -254q0 -180 -148 -316q-51 -47 -120 -80q156 -90 215.5 -153.5t87.5 -123t28 -148t-41.5 -167t-115.5 -132.5q-149 -108 -386 -108q-252 0 -402 100 q-161 106 -161 301zM424 403q0 -139 146 -183q51 -16 110 -16t100.5 11.5t73.5 34.5q70 49 70 128q0 123 -200 230q-58 31 -121 63q-179 -94 -179 -268zM468 1193q0 -115 150 -215q45 -30 96 -59q181 75 181 261q0 121 -125 162q-40 13 -88 13t-86 -11.5t-66 -32.5 q-62 -45 -62 -118z" />
<glyph unicode="9" horiz-adv-x="1427" d="M135 708q0 249 148 401q159 163 446 163q260 0 414 -178q145 -169 145 -424q0 -284 -148 -531q-128 -215 -344 -365q-196 -136 -393 -168l-83 184q280 71 465 324q108 149 150 314q21 84 21 166q0 458 -258 458q-180 0 -232 -156q-17 -48 -17 -119t15 -131t42 -98.5 t63.5 -56.5t102 -18t131.5 33l60 -178q-52 -60 -185 -85q-48 -9 -130.5 -9t-163.5 38.5t-136 103.5q-113 132 -113 332z" />
<glyph unicode=":" horiz-adv-x="641" d="M126 172q0 41 16 79.5t44 68.5q59 63 144 63q84 0 136 -55q49 -54 49 -137v-24t-15 -58.5t-42 -66.5q-60 -64 -145 -64q-80 0 -133 55q-54 56 -54 139zM126 931q0 41 16 79.5t44 68.5q59 63 144 63q84 0 136 -55q49 -54 49 -137v-24t-15 -58.5t-42 -66.5 q-60 -64 -145 -64q-80 0 -133 55q-54 56 -54 139z" />
<glyph unicode=";" horiz-adv-x="641" d="M126 931q0 41 16 79.5t44 68.5q59 63 144 63q84 0 136 -55q49 -54 49 -137v-24t-15 -58.5t-42 -66.5q-60 -64 -145 -64q-80 0 -133 55q-54 56 -54 139zM138 73v87l222 136q87 -33 139 -133q45 -86 45 -178t-22.5 -170.5t-61.5 -142.5q-81 -135 -203 -178l-106 98v26 q66 39 95 167q9 39 9 76.5t-11 74t-29 66.5q-40 69 -77 71z" />
<glyph unicode="&#x3c;" horiz-adv-x="1378" d="M197 698v154l952 479v-274l-597 -284l597 -262v-282z" />
<glyph unicode="=" horiz-adv-x="1423" d="M251 411v216h921v-216h-921zM251 923v216h921v-216h-921z" />
<glyph unicode="&#x3e;" horiz-adv-x="1377" d="M218 229l952 469v154l-952 479v-274l597 -284l-597 -262v-282z" />
<glyph unicode="?" horiz-adv-x="1057" d="M126 1565v232q82 49 259.5 49t291.5 -38q309 -103 309 -402v-43t-18.5 -93.5t-48.5 -101t-69 -83.5t-80 -72.5t-81 -67t-72 -68.5q-103 -116 -71 -264q5 -23 12.5 -48.5t16.5 -58.5h-238q-78 117 -78 275q0 142 124 252q36 32 73.5 62t73.5 59.5t64 63.5q63 76 63 172 q0 201 -325 201q-102 0 -148 -11zM306 156q0 39 15 73t41 61q58 57 135 57q79 0 128 -51q48 -49 48 -124q0 -80 -57 -136q-57 -58 -134 -58q-74 0 -124 50q-52 52 -52 128z" />
<glyph unicode="@" horiz-adv-x="2228" d="M171 444.5q0 161.5 39 308t109.5 269t169.5 219t219 163.5q248 139 546 139q359 0 575 -188q227 -197 227 -550q0 -383 -189 -607q-172 -203 -410 -203q-191 0 -191 221q0 18 1 41q-157 -262 -363 -262q-112 0 -196 110q-91 119 -91 319q0 245 145 439q100 133 261 189 q83 28 210.5 28t207.5 -55l185 31q-50 -207 -95 -451q-50 -273 -50 -327q0 -82 48 -82q55 0 111.5 41t102.5 117q104 172 104 421q0 424 -314 544q-123 47 -266.5 47t-250.5 -28.5t-202 -83t-174.5 -134t-136.5 -181.5q-121 -217 -121 -491q0 -504 364 -672q146 -67 327 -67 q235 0 381 73q38 19 68 35l43 -159q-208 -126 -512 -126q-382 0 -622 219q-165 150 -228 404q-32 128 -32 289.5zM860 450q0 -228 114 -228q65 0 148 108q118 151 185 376q20 67 28 123q-39 54 -158 54q-133 0 -227 -135q-90 -129 -90 -298z" />
<glyph unicode="A" horiz-adv-x="1421" d="M-15 0l562 1538h322l567 -1538h-347l-102 322h-560l-100 -322h-342zM499 551h415l-165 522l-43 157l-44 -157z" />
<glyph unicode="B" horiz-adv-x="1422" d="M188 0v1523l154 -1l358 15q279 0 423 -108q134 -101 134 -277q0 -196 -131 -296q-43 -33 -97 -47q137 -16 221 -108q88 -95 88 -240q0 -224 -132 -341q-151 -134 -479 -134q-168 0 -378 14h-161zM503 232q32 -26 162.5 -26t185 12.5t91.5 40.5q74 57 74 181t-70.5 177.5 t-237 53.5t-205.5 -7v-432zM503 893q45 -9 152.5 -9t156.5 13.5t80 42.5q62 57 62 185q0 179 -288 179q-134 0 -163 -13v-398z" />
<glyph unicode="C" horiz-adv-x="1299" d="M100 765q0 181 58 326.5t159 244.5q205 202 529 202q180 0 340 -42q38 -10 74 -17l-46 -280q-72 40 -115 54q-101 33 -213.5 33t-192.5 -34.5t-139 -99.5q-126 -140 -126 -375q0 -242 122 -392q127 -155 340 -155q146 0 295 64q38 17 58 32l1 -262q-146 -58 -230.5 -69 t-153.5 -11q-348 0 -556 214q-204 210 -204 567z" />
<glyph unicode="D" horiz-adv-x="1554" d="M188 0v1522h151q34 0 118 6q159 10 251 10q561 0 701 -425q45 -137 45 -322t-54 -337q-110 -307 -398 -418q-137 -52 -306 -52q-107 0 -196 8t-158 8h-154zM509 246q63 -18 174 -18h6q115 0 189.5 31.5t127.5 96.5q112 137 112 411q0 291 -108 414q-103 117 -332 117 l-169 -14v-1038z" />
<glyph unicode="E" horiz-adv-x="1254" d="M188 0v1522h928v-244h-610v-378h468v-241h-468v-408h675v-251h-993z" />
<glyph unicode="F" horiz-adv-x="1145" d="M188 0v1522h923v-244h-601v-399h442v-245h-442v-634h-322z" />
<glyph unicode="G" horiz-adv-x="1494" d="M100 753q0 391 220 597q200 188 539 188q148 0 223 -14.5t116 -25t91 -20.5l-10 -273q-130 61 -273 75q-63 6 -154 6t-170.5 -34.5t-135.5 -99.5q-115 -135 -115 -372q0 -243 93 -391q47 -75 119.5 -118t199 -43t227.5 38v305l-233 12v237h535v-730q-34 -2 -78 -18.5 t-107 -35.5q-166 -52 -350 -52t-319 54.5t-228 155.5q-190 205 -190 559z" />
<glyph unicode="H" horiz-adv-x="1601" d="M188 0v1522h318v-632h593v632h314v-1522h-314v651h-593v-651h-318z" />
<glyph unicode="I" horiz-adv-x="722" d="M201 0v1522h320v-1522h-320z" />
<glyph unicode="J" horiz-adv-x="798" d="M-10 -164q211 81 257 281q32 131 32 491v914h320v-909l1 -215q0 -196 -16.5 -286.5t-48 -149t-74 -105t-93.5 -81.5t-104 -58q-105 -48 -197 -50z" />
<glyph unicode="K" horiz-adv-x="1444" d="M188 0v1522h318v-674l535 674h350l-514 -644q146 -216 469 -768l65 -110h-354q-10 14 -30 52t-46 84.5t-68.5 118t-84.5 140.5q-74 119 -165 251l-157 -177v-469h-318z" />
<glyph unicode="L" horiz-adv-x="1120" d="M188 0v1522h318v-1280h548v-242h-866z" />
<glyph unicode="M" horiz-adv-x="1886" d="M70 -1l162 1523h447l203 -800l77 -336l58 336l183 800h434l182 -1522h-312l-75 816l-27 466l-112 -466l-218 -831h-252l-241 831l-113 466l-101 -1282z" />
<glyph unicode="N" horiz-adv-x="1620" d="M188 0v1522h295l567 -895l115 -228l-29 366v757h296v-1522h-319l-543 861l-121 243l35 -363v-741h-296z" />
<glyph unicode="O" horiz-adv-x="1595" d="M98 770q0 186 57.5 334.5t153.5 241.5q197 192 533 192q300 0 478 -208q177 -206 177 -546q0 -395 -205 -605q-190 -195 -518 -195q-154 0 -277 53q-262 113 -355 406q-44 141 -44 327zM427 775q0 -130 23 -227.5t69 -170.5t116 -114.5t159 -41.5t157.5 32.5t116.5 100.5 q100 142 100 419q0 234 -88 374q-94 149 -266 149q-270 0 -356 -289q-31 -102 -31 -232z" />
<glyph unicode="P" horiz-adv-x="1359" d="M188 0v1522h96l449 16q409 0 518 -284q38 -100 38 -236t-40 -238.5t-117 -173t-190.5 -108t-248.5 -37.5t-187 2v-463h-318zM506 710q59 -8 141.5 -8t137 14t96.5 50q92 77 92 237t-74.5 232t-201 72t-191.5 -14v-583z" />
<glyph unicode="Q" horiz-adv-x="1595" d="M98 746q0 395 211 600q197 192 533 192q300 0 478 -208q177 -206 177 -546q0 -330 -146 -534q-131 -184 -364 -242q58 -78 243 -86q56 -3 97 -3t68.5 2t56.5 5q67 7 98 18v-219q-40 -29 -122 -40t-155.5 -11t-169.5 15t-173 51q-161 75 -216 246q-291 20 -458 237 q-158 204 -158 523zM427 775q0 -130 23 -227.5t69 -170.5t116 -114.5t159 -41.5t157.5 32.5t116.5 100.5q100 142 100 419q0 234 -88 374q-94 149 -266 149q-270 0 -356 -289q-31 -102 -31 -232z" />
<glyph unicode="R" horiz-adv-x="1435" d="M188 0v1522h147q35 0 71.5 2.5t83.5 5.5q123 8 239.5 8t215.5 -21.5t175 -74.5q167 -115 167 -364q0 -342 -253 -443q74 -63 151 -237q32 -72 63.5 -147.5t69.5 -140.5l63 -110h-354q-17 24 -31 55t-30.5 65t-34 86t-34.5 104t-35 100.5t-40 85.5q-48 81 -115 83 q-76 -4 -201 -4v-575h-318zM506 804q48 -6 118 -6h91q134 0 203 82q60 71 60 189q0 106 -50 161q-64 71 -242 71q-104 0 -180 -18v-479z" />
<glyph unicode="S" horiz-adv-x="1207" d="M139 1126q0 114 42.5 192.5t115.5 127.5q139 92 373 92q194 0 336 -60q37 -15 57 -28l-52 -247q-151 97 -332 97q-228 0 -228 -156q0 -77 62 -131q45 -39 168 -104.5t199.5 -112t132.5 -102.5q119 -117 119 -286q0 -202 -145 -315q-139 -109 -378 -109q-212 0 -389 61 q-47 16 -68 29l45 255q113 -63 274 -87q57 -9 119 -9t105 10t69 29q48 36 48 116q0 78 -60 130q-52 46 -166 102.5t-159.5 83t-87.5 58.5t-78.5 69.5t-63.5 82.5q-58 98 -58 212z" />
<glyph unicode="T" horiz-adv-x="1250" d="M30 1278v244h1190v-244h-434v-1278h-320v1278h-436z" />
<glyph unicode="U" horiz-adv-x="1525" d="M150 653l2 869h315l-2 -852q0 -252 77 -349q67 -83 225 -83q151 0 219 89q77 100 77 343v852h313v-882q0 -320 -155.5 -488t-462.5 -168q-480 0 -578 394q-30 124 -30 275z" />
<glyph unicode="V" horiz-adv-x="1386" d="M-5 1522h341l284 -831l81 -290l82 290l269 831h339l-560 -1528h-270z" />
<glyph unicode="W" horiz-adv-x="1973" d="M5 1522h319l188 -894l53 -370l61 370l220 894h284l234 -894l62 -354l51 354l173 894h318l-398 -1538h-326l-214 850l-49 328l-45 -329l-219 -849h-304z" />
<glyph unicode="X" horiz-adv-x="1376" d="M32 0l459 785l-448 737l348 1l312 -540l295 539h336l-454 -770l464 -752h-353l-318 556l-309 -556h-332z" />
<glyph unicode="Y" horiz-adv-x="1241" d="M-50 1522h350l280 -590l44 -114l38 114l288 590h341l-511 -989v-533h-319v535z" />
<glyph unicode="Z" horiz-adv-x="1306" d="M54 84l686 1126l58 81h-668v231h1067l38 -81l-672 -1106l-73 -93h706v-242h-1102z" />
<glyph unicode="[" horiz-adv-x="799" d="M145 60v1426q0 150 37 200q39 51 153 51q137 0 225 -10t136 -14v-163h-268v-1570l268 -2v-145q-230 -24 -324.5 -24t-131.5 11.5t-58 39.5q-37 51 -37 200z" />
<glyph unicode="\" horiz-adv-x="864" d="M14 1599l561 -1962h255l-561 1962h-255z" />
<glyph unicode="]" horiz-adv-x="799" d="M93 -22v-145q230 -24 324.5 -24t131.5 11.5t58 39.5q37 51 37 200v1426q0 150 -37 200q-39 51 -153 51q-137 0 -225 -10t-136 -14v-163h268v-1570z" />
<glyph unicode="^" horiz-adv-x="1373" d="M153 490l420 1041h227l420 -1041h-281l-253 673l-252 -673h-281z" />
<glyph unicode="_" horiz-adv-x="1702" d="M-35 -241h1772v-168h-1772v168z" />
<glyph unicode="`" horiz-adv-x="666" d="M55 1634l215 174q91 -155 250 -328q47 -51 91 -91l-149 -137q-71 30 -210 151q-150 131 -197 231z" />
<glyph unicode="a" horiz-adv-x="1223" d="M102 355q0 195 199 285q148 66 457 66v72q0 93 -40 119q-42 27 -186 27q-83 0 -180.5 -32.5t-133.5 -48.5l-69 200q118 70 321 107q69 12 162.5 12t180.5 -18.5t144 -65.5q113 -95 113 -333v-761h-182q-64 0 -83 12q-34 23 -34 92v8q-123 -112 -297 -112q-167 0 -270 104 q-102 104 -102 267zM424 352q0 -37 12 -67.5t33 -50.5q41 -39 112 -39q80 0 151 42q18 11 26 21v272q-165 0 -270 -58q-64 -34 -64 -120z" />
<glyph unicode="b" horiz-adv-x="1340" d="M168 64v1597h312v-437l-8 -188q126 120 319 120q194 0 317 -134q137 -147 137 -410q0 -283 -165 -460q-165 -175 -431 -175q-221 0 -421 63q-47 15 -60 24zM480 232q37 -39 176 -39q115 0 186 103q76 109 76 302q0 259 -130 309q-42 16 -93 16q-129 0 -215 -71v-620z" />
<glyph unicode="c" horiz-adv-x="1048" d="M95 556q0 266 139 426q152 174 430 174q154 0 254 -38q28 -10 42 -20l-39 -241q-82 44 -225 44q-186 0 -262 -161q-29 -64 -29 -155t19 -154.5t57 -108.5q75 -87 218.5 -87t232.5 47l45 -185q-79 -79 -245 -105q-51 -8 -105 -8q-257 0 -399 164q-133 152 -133 408z" />
<glyph unicode="d" horiz-adv-x="1339" d="M95 533q0 282 160 453q158 170 420 170q103 0 187 -32l-3 100v438h312v-1678h-212q-34 0 -54.5 10t-20.5 48v77q-135 -135 -335 -135q-194 0 -317 136q-137 149 -137 413zM422 548q0 -255 130 -305q42 -16 93 -16q124 0 214 60v614q-47 33 -139 33t-139.5 -23t-82.5 -69 q-76 -102 -76 -294z" />
<glyph unicode="e" horiz-adv-x="1190" d="M95 574q0 256 141 415q149 167 411 167q303 0 407 -237q37 -86 38 -220v-22q0 -118 -10 -182h-675q19 -279 305 -279q112 0 191 23.5t102 35.5l51 -177q-94 -77 -293 -105q-64 -9 -162.5 -9t-198.5 40t-168 116q-139 154 -139 434zM413 668h390q1 23 1 44q0 222 -174 222 q-93 0 -144 -57q-58 -66 -73 -209z" />
<glyph unicode="f" horiz-adv-x="858" d="M82 924v182l155 34v109q0 296 228 395q88 39 211 39t189 -22v-222q-50 24 -139 24q-177 0 -177 -207v-116h266v-216h-266v-924h-312v924h-155z" />
<glyph unicode="g" horiz-adv-x="1305" d="M91 -183q0 119 106 197q32 23 70 40q-93 46 -93 174q0 154 182 230q-109 47 -171.5 129t-62.5 188q0 381 514 381q219 0 341 -83q73 67 184 67h127v-226h-189q20 -60 20 -141t-34 -151.5t-99 -117.5q-133 -95 -374 -95q-52 0 -100 6q-42 -34 -42 -92q0 -68 74 -77 q25 -3 61 -3h190q253 0 359 -111q80 -85 80 -234q0 -193 -184 -310q-167 -104 -401 -104q-8 0 -76.5 0.5t-169.5 22.5t-170 64q-142 86 -142 246zM401 -97q0 -59 12.5 -98t40.5 -69q64 -68 191 -68q281 0 281 168q0 88 -44 122q-54 42 -214 42h-163q-32 0 -62 2 q-42 -40 -42 -99zM423 779q0 -83 49 -131t145 -48q99 0 137 26q70 49 70 149q0 188 -200.5 188t-200.5 -184z" />
<glyph unicode="h" horiz-adv-x="1351" d="M168 0v1662h312v-438l-17 -203q106 88 252 124q59 14 128.5 14t136.5 -21.5t114 -75.5q95 -107 95 -352v-710h-312v648q0 141 -37 194t-128 53q-86 0 -176 -47q-30 -16 -56 -39v-809h-312z" />
<glyph unicode="i" horiz-adv-x="660" d="M148 1478q0 75 61 132q59 55 138 55q81 0 132 -49q48 -46 48 -121q0 -77 -59 -133q-59 -55 -138 -55q-39 0 -72 12.5t-57 35.5q-53 49 -53 123zM174 0v1140h312v-1140h-312z" />
<glyph unicode="j" horiz-adv-x="644" d="M-104 -282q51 -22 106.5 -22t86.5 15.5t49 50.5q36 69 36 239v1139h312v-1058q0 -455 -241 -556q-77 -33 -174 -33q-51 0 -108.5 10t-66.5 14v201zM139 1478q0 75 61 132q59 55 138 55q81 0 132 -49q48 -46 48 -121q0 -77 -59 -133q-59 -55 -138 -55q-39 0 -72 12.5 t-57 35.5q-53 49 -53 123z" />
<glyph unicode="k" horiz-adv-x="1238" d="M168 0v1661h312v-684l-11 -287l386 450h353l-407 -444l447 -696h-355l-296 475l-122 -133l5 -129v-213h-312z" />
<glyph unicode="l" horiz-adv-x="672" d="M180 0v1662h312v-1662h-312z" />
<glyph unicode="m" horiz-adv-x="2047" d="M174 0v1140h283l6 -122q114 87 265 126q62 16 124 16q198 0 276 -138q113 87 266 124q58 14 134.5 14t144.5 -22t115 -74q97 -106 97 -347v-717h-312v649q0 143 -25.5 183.5t-56.5 52t-55.5 11.5h-41t-47.5 -7t-60 -19q-64 -26 -104 -59q5 -60 5 -104v-707h-312v648 q0 142 -34 195q-33 53 -123 53q-85 0 -177 -48q-30 -16 -56 -39v-809h-312z" />
<glyph unicode="n" horiz-adv-x="1352" d="M174 0v1140h283l6 -122q112 85 265 125q62 16 133 16t134 -20.5t107 -72.5q88 -104 88 -351v-715h-312v648q0 143 -35 196q-34 52 -126 52q-85 0 -175 -48q-30 -16 -56 -39v-809h-312z" />
<glyph unicode="o" horiz-adv-x="1302" d="M96 595.5q0 130.5 44.5 238t119.5 178.5q152 144 402 144q284 0 424 -183q120 -156 120 -411q0 -280 -163 -434q-152 -144 -402 -144q-283 0 -425 183q-65 84 -92.5 191t-27.5 237.5zM419 586q0 -259 125 -350q44 -32 109 -32q230 0 230 357q0 253 -123 341 q-44 31 -105 32q-236 0 -236 -348z" />
<glyph unicode="p" horiz-adv-x="1340" d="M168 -506v1646h291v-116q132 132 332 132q194 0 317 -134q137 -147 137 -410q0 -283 -160 -456q-76 -82 -183 -127t-223.5 -45t-202.5 32l4 -155v-367h-312zM480 249q51 -46 176 -46q115 0 186 100q76 106 76 295q0 259 -130 309q-42 16 -93 16q-129 0 -215 -71v-603z " />
<glyph unicode="q" horiz-adv-x="1340" d="M95 533q0 282 160 453q158 170 420 170q155 0 272 -50l225 34v-1646h-312v367l6 240q-123 -117 -317 -117t-317 136q-137 149 -137 413zM422 548q0 -255 130 -305q42 -16 93 -16q130 0 215 61v613q-46 33 -176 33q-116 0 -186 -92q-76 -102 -76 -294z" />
<glyph unicode="r" horiz-adv-x="926" d="M158 0v1140h277l14 -156q63 112 219 160q50 15 109 15t84 -14v-301q-56 28 -137 28q-145 0 -254 -103v-769h-312z" />
<glyph unicode="s" horiz-adv-x="1048" d="M115 72l32 232q57 -47 219 -80q53 -10 127.5 -10t117 21t42.5 72.5t-61 90t-162.5 72t-156.5 68.5t-89 78q-65 82 -65 212q0 157 131 245q125 83 329 83q213 0 321 -65l-34 -240q-56 49 -182 71q-38 6 -107 6q-158 0 -160 -90q0 -53 48.5 -86t155 -69t167.5 -69.5 t99 -75.5q73 -79 73 -185.5t-31.5 -172.5t-89.5 -110q-115 -86 -326 -86q-183 0 -333 57q-42 16 -65 31z" />
<glyph unicode="t" horiz-adv-x="913" d="M74 924v169q96 29 119 40q47 24 63 64q35 86 77 203h190v-260h309v-216h-309v-458q0 -162 29 -210q15 -25 40 -31t53 -6t53 4t50 11q55 14 82 33l38 -175q-82 -70 -230 -98q-54 -10 -125.5 -10t-131.5 19.5t-97 62.5q-73 82 -73 273v585h-137z" />
<glyph unicode="u" horiz-adv-x="1326" d="M162 474v666h312v-663q0 -156 42 -209q36 -45 133 -45q78 0 157 43q21 12 34 22v852h312v-1156h-206q-37 0 -56.5 10.5t-19.5 47.5v51q-102 -73 -246 -101q-45 -8 -87 -8q-226 0 -310 136q-65 104 -65 354z" />
<glyph unicode="v" horiz-adv-x="1191" d="M17 1140h337l174 -560l72 -278l70 278l174 560h330l-435 -1156h-289z" />
<glyph unicode="w" horiz-adv-x="1757" d="M18 1140h312l142 -551l51 -276l58 275l165 552h291l165 -551l51 -275l52 272l132 554h302l-356 -1156h-278l-182 607l-44 218l-45 -218l-179 -607h-289z" />
<glyph unicode="x" horiz-adv-x="1220" d="M36 0l401 577l-401 563h353l196 -297l35 -60l31 61l188 296h352l-405 -558l413 -582h-357l-239 373l-26 -54l-184 -319h-357z" />
<glyph unicode="y" horiz-adv-x="1188" d="M17 1140h338l173 -609l83 -330l216 939h335l-355 -1170q-116 -376 -383 -456q-73 -21 -118 -21t-68.5 2t-47.5 5q-62 6 -70 12v253q53 -20 101.5 -20t91.5 4t85 28q96 55 140 223h-134z" />
<glyph unicode="z" horiz-adv-x="1108" d="M76 83l496 757l58 83h-488l2 217h866l35 -95l-484 -745l-61 -84h529v-216h-911z" />
<glyph unicode="{" horiz-adv-x="952" d="M68 682v191q159 17 230 77q26 22 26 50v486q0 214 120 256q42 15 129.5 15t282.5 -24v-171h-262v-571q0 -85 -78 -137q-61 -41 -167 -78q199 -69 235 -158q10 -25 10 -56v-582h262v-156q-126 -35 -312 -35q-117 0 -168 61q-52 63 -52 210v487q0 49 -90 91q-78 35 -166 44 z" />
<glyph unicode="|" horiz-adv-x="865" d="M305 -187v1967h255v-1967h-255z" />
<glyph unicode="}" horiz-adv-x="952" d="M86 -20v-156q126 -35 312 -35q117 0 168 61q52 63 52 210v487q0 49 90 91q78 35 166 44v191q-159 17 -230 77q-26 22 -26 50v486q0 214 -120 256q-42 15 -129.5 15t-282.5 -24v-171h262v-571q0 -85 78 -137q61 -41 167 -78q-199 -69 -235 -158q-10 -25 -10 -56v-582h-262 z" />
<glyph unicode="~" horiz-adv-x="1448" d="M208 830q21 70 110 140q103 80 215 80q120 0 217 -78q61 -49 98 -64t74 -15q108 0 201 105l116 -138q-25 -79 -113 -140q-100 -71 -218 -71q-114 0 -206 79q-56 50 -92.5 65t-75.5 15q-102 0 -196 -106z" />
<glyph />
<glyph unicode="&#xa1;" horiz-adv-x="641" d="M116 1154.5q0 41.5 15.5 80t43.5 67.5q59 64 144 64q80 0 133 -55t53 -140q0 -42 -15.5 -79.5t-43.5 -67.5q-60 -63 -144 -63q-130 0 -173 117q-13 35 -13 76.5zM133 -436l34 1225h267l46 -1225h-347z" />
<glyph unicode="&#xa2;" horiz-adv-x="1187" d="M144 556q0 365 252 520q85 53 201 71l6 230h171l-5 -223q176 -10 240 -56l-39 -241q-82 44 -225 44q-186 0 -261 -161q-30 -64 -30 -155t19 -154.5t57 -108.5q75 -87 218.5 -87t232.5 47l45 -185q-95 -93 -287 -110l-3 -203h-172l4 208q-207 33 -318 190 q-106 148 -106 374z" />
<glyph unicode="&#xa3;" horiz-adv-x="1576" d="M114 105.5q0 51.5 21 84t57 56.5q71 46 189 50q35 52 35 239v182h-176v181h176v127q0 233 128 368q138 145 390 145q219 0 367 -97l-126 -229q-107 82 -212 82q-103 0 -153 -48q-74 -71 -74 -283v-65h310v-181h-310v-163q0 -213 -110 -309q39 -8 73.5 -17t70.5 -17 q84 -19 186 -19t155 43t53 105q0 111 -63 156l211 110q60 -37 86 -71q55 -76 55 -173.5t-28.5 -165t-85.5 -115.5q-118 -99 -345 -99q-172 0 -329 55q-105 37 -138.5 45.5t-63.5 7.5q-55 -62 -147 -89q-30 -9 -56.5 -9t-51.5 6.5t-46 21.5q-48 34 -48 85.5z" />
<glyph unicode="&#xa4;" horiz-adv-x="1544" d="M200 314l195 198q-79 116 -79 260t77 258l-192 197l139 147l200 -206q105 61 224 61t226 -62l213 214l141 -147l-206 -208q76 -114 76 -254.5t-78 -256.5l195 -199l-140 -145l-203 205q-102 -59 -224 -59q-120 0 -221 58l-202 -205zM538 773q0 -95 67 -165 q67 -71 161 -71q93 0 160 71q66 69 66 165t-66 165q-67 71 -160 71q-94 0 -161 -71q-67 -70 -67 -165z" />
<glyph unicode="&#xa5;" horiz-adv-x="1576" d="M158 1522h323l240 -420l68 -141l68 143l255 418h325l-422 -671h266v-192h-347v-198h347v-192h-347v-269h-290v269h-358v192h358v198h-358v192h290z" />
<glyph unicode="&#xa6;" horiz-adv-x="865" d="M305 -186v806h255v-806h-255zM305 964v816h255v-816h-255z" />
<glyph unicode="&#xa7;" horiz-adv-x="1402" d="M203 776.5q0 153.5 165 287.5q-114 105 -114 258q0 176 158 272q131 79 315 79q242 0 366 -73l-42 -225q-100 75 -306 75q-136 0 -177 -69q-15 -24 -15 -61.5t28.5 -68.5t74.5 -59t105 -54.5t121 -57t121 -67.5t105 -85q103 -106 103 -250q0 -149 -128 -279 q89 -96 89 -239q0 -177 -163 -272q-139 -81 -328 -81q-196 0 -343 61q-40 16 -63 32l42 225q78 -61 227 -86q54 -9 119 -9q210 0 210 135q0 83 -212 164q-155 59 -230.5 102t-122.5 89q-105 103 -105 256.5zM471 825q0 -51 19.5 -84t52.5 -58.5t77.5 -46.5t94.5 -40 q149 -57 206 -84q28 67 28 113.5t-18 81.5t-49.5 64t-73.5 53t-89.5 46t-98.5 44.5t-100 47.5q-49 -86 -49 -137z" />
<glyph unicode="&#xa8;" horiz-adv-x="974" d="M70 1478q0 76 54 130q55 55 131 55q121 0 154 -101q10 -31 10 -68t-14 -71t-38.5 -59t-58 -39.5t-72 -14.5t-69 12.5t-52.5 35.5q-45 46 -45 120zM555 1478q0 76 54 130q55 55 131 55q121 0 154 -101q10 -31 10 -68t-14 -71t-38.5 -59t-58 -39.5t-72 -14.5t-69 12.5 t-52.5 35.5q-45 46 -45 120z" />
<glyph unicode="&#xa9;" horiz-adv-x="2093" d="M176 962q0 122 30.5 234.5t87 210t135.5 177.5t175 137q202 119 442 119q239 0 442 -119q197 -116 311 -315q118 -205 118 -443q0 -239 -118 -445q-176 -308 -520 -404q-112 -32 -233 -32q-238 0 -442 120q-195 115 -310 316q-118 204 -118 444zM318 962.5 q0 -103.5 25 -199t71 -179.5t111 -152.5t146 -117.5q170 -103 375 -103t375 103q250 151 328 450q25 95 25 198.5t-25 199.5t-71 179.5t-111 152t-146 117.5q-170 103 -375 103t-375 -103q-251 -152 -328 -449q-25 -96 -25 -199.5zM604 950v6q0 216 126 350q134 143 369 143 q114 0 209 -30q26 -8 41 -17l-45 -206q-77 58 -212 58q-112 0 -182 -68q-72 -71 -72 -175t19.5 -164.5t54.5 -98.5q67 -74 189.5 -74t227.5 64l48 -159q-81 -67 -229 -95q-49 -9 -125 -9t-158 38t-140 103q-121 134 -121 334z" />
<glyph unicode="&#xaa;" horiz-adv-x="1067" d="M120 940q0 191 192 271q150 55 361 55v35q0 77 -41 103q-36 23 -102.5 23t-110.5 -7.5t-87 -19.5q-93 -25 -129 -50l-56 155q33 31 122 58q168 53 270 53t174.5 -16t120.5 -52q99 -73 99 -241v-630h-130q-70 0 -86 7q-32 14 -32 68v13q-61 -61 -185 -89q-43 -9 -99.5 -9 t-110.5 19.5t-92 55.5q-78 74 -78 198zM375 965q0 -33 10 -51.5t27 -31t39 -18.5t49.5 -6t56.5 5.5t52 13.5q49 17 64 30v213q-159 0 -213 -30t-69.5 -61t-15.5 -64z" />
<glyph unicode="&#xab;" horiz-adv-x="1998" d="M235 492v243l656 422l75 -216l-431 -327l431 -324l-75 -214zM1018 492v243l656 422l75 -216l-431 -327l431 -324l-75 -214z" />
<glyph unicode="&#xac;" horiz-adv-x="1480" d="M245 639v213h990v-529h-244v316h-746z" />
<glyph unicode="&#xad;" horiz-adv-x="1360" d="M255 644v245h850v-245h-850z" />
<glyph unicode="&#xae;" horiz-adv-x="2093" d="M172 962q0 121 31 233.5t87.5 210t136 177.5t177.5 137q205 120 442 120q239 0 443 -120q197 -116 313 -314q119 -204 119 -444t-119 -445q-179 -308 -522 -405q-113 -31 -234 -31q-237 0 -442 120q-198 115 -314 316q-118 206 -118 445zM314 988q0 -129 25.5 -225 t72 -179.5t112.5 -152t148 -117.5q171 -103 374 -103t374 103q253 152 332 448q26 96 26 225.5t-56 266t-154.5 238.5t-232 161t-289.5 59t-289.5 -59t-232 -161t-154.5 -238.5t-56 -265.5zM709 481v963h89l261 5q174 0 267 -78q88 -73 88 -197q0 -258 -190 -317 q80 -41 152 -199q46 -101 106 -176h-246q-16 17 -26.5 38t-25 49.5t-29.5 68.5t-35 78q-48 94 -110 116l-40 -1h-49v-350h-212zM921 987q31 -7 118 -7q156 0 156 165q0 109 -91 135q-32 9 -91 9t-92 -11v-291z" />
<glyph unicode="&#xaf;" horiz-adv-x="701" d="M55 1420v206h591v-206h-591z" />
<glyph unicode="&#xb0;" horiz-adv-x="957" d="M118 1278q0 153 103 254q103 102 257 102q151 0 256 -103q104 -103 104 -253q0 -155 -102 -256q-103 -101 -256 -101q-77 0 -142.5 27.5t-114.5 75.5q-105 104 -105 254zM306 1278q0 -76 50.5 -128.5t121.5 -52.5q37 0 68.5 13.5t54.5 37.5q50 54 50 130t-51 128 q-50 52 -122 52q-74 0 -123 -51t-49 -129z" />
<glyph unicode="&#xb1;" horiz-adv-x="1403" d="M213 656v237h209l162 -7l-6 187v217h246v-217l-7 -187l151 7h222v-237h-222l-151 6l7 -188v-214h-246v214l6 188l-162 -6h-209zM243 0v198h909v-198h-909z" />
<glyph unicode="&#xb2;" horiz-adv-x="1234" d="M156 1517q50 79 168 139q130 67 258 67t202.5 -29t121.5 -73q87 -83 87 -197q0 -218 -233 -408q-73 -59 -162 -115l448 20v-241h-817l-43 154q151 78 313 224q201 181 201 308q0 153 -165 153q-84 0 -148 -38.5t-123 -112.5z" />
<glyph unicode="&#xb3;" horiz-adv-x="1234" d="M248 1600q90 74 272 104q51 9 120.5 9t139.5 -19t114 -52q87 -64 87 -172q0 -176 -189 -275q116 -6 186 -79q64 -68 64 -152.5t-28 -152t-86 -117.5q-123 -106 -357 -106q-115 0 -231 34q-28 8 -51 13l-6 184q124 -31 245 -31q240 2 240 155q0 113 -175 142l-159 -33 l1 185q68 9 114 21t75.5 28.5t51.5 37.5q47 45 45 96q-2 101 -158 101q-122 0 -249 -78z" />
<glyph unicode="&#xb4;" horiz-adv-x="665" d="M55 1389q197 186 341 419l214 -174q-55 -125 -278 -298q-81 -63 -128 -84z" />
<glyph unicode="&#xb5;" horiz-adv-x="1404" d="M181 -371v1511h312v-656q0 -136 46 -194t149.5 -58t180.5 68v840h312v-859q0 -76 43 -76q38 0 82 27l31 -145q-34 -54 -157 -91q-44 -14 -97 -14q-145 0 -151 138q-97 -136 -259.5 -136t-239.5 68l30 -423h-282z" />
<glyph unicode="&#xb6;" horiz-adv-x="1410" d="M62 1248q0 224 148.5 343.5t447.5 119.5l544 -20v-1691h-252v1522h-202v-1522h-252v777q-434 0 -434 471z" />
<glyph unicode="&#xb7;" horiz-adv-x="641" d="M126 780q0 41 16 79.5t44 68.5q59 63 144 63q84 0 136 -55q49 -54 49 -137v-24t-15 -58.5t-42 -66.5q-60 -64 -145 -64q-80 0 -133 55q-54 56 -54 139z" />
<glyph unicode="&#xb8;" horiz-adv-x="518" d="M33 -436l20 165q23 -14 74.5 -14t86 36.5t37.5 113.5q1 19 1 35q0 74 -32 130l137 4l49 -4q62 -59 62 -232q0 -136 -80 -204q-67 -58 -175 -58q-76 0 -123.5 11t-56.5 17z" />
<glyph unicode="&#xb9;" horiz-adv-x="1066" d="M175 1516q149 45 335 163q23 15 35 25l145 -25v-1006h-279v729q-123 -34 -196 -47z" />
<glyph unicode="&#xba;" horiz-adv-x="1065" d="M83 1148q0 238 152 365q126 105 317 105q210 0 324 -134q106 -125 106 -340q0 -240 -142 -368q-120 -107 -322 -107q-99 0 -183 35q-168 68 -225 252q-27 87 -27 192zM350 1156q0 -214 107 -276q34 -20 58 -20t47.5 0.5t56.5 16t54 48.5q42 66 42 209q0 293 -170 293 q-195 0 -195 -271z" />
<glyph unicode="&#xbb;" horiz-adv-x="1998" d="M239 290l75 -214l656 416v243l-656 422l-75 -216l431 -327zM1022 290l75 -214l656 416v243l-656 422l-75 -216l431 -327z" />
<glyph unicode="&#xbc;" horiz-adv-x="2559" d="M207 1516q149 45 335 163q23 15 35 25l145 -25v-1006h-279v729q-123 -34 -196 -47zM771 0l539 1530h243l-542 -1530h-240zM1343 290l498 889h68l187 -92l-440 -699h285l25 260h230v-260h164v-192h-164v-272h-256v272h-545z" />
<glyph unicode="&#xbd;" horiz-adv-x="2559" d="M208 1516q149 45 335 163q23 15 35 25l145 -25v-1006h-279v729q-123 -34 -196 -47zM771 0l539 1530h243l-542 -1530h-240zM1478 836q50 79 168 139q130 67 258 67t202.5 -29t121.5 -73q87 -83 87 -197q0 -218 -233 -408q-73 -59 -162 -115l448 20v-241h-817l-43 154 q151 78 313 224q201 181 201 308q0 153 -165 153q-84 0 -148 -38.5t-123 -112.5z" />
<glyph unicode="&#xbe;" horiz-adv-x="2559" d="M115 1600q90 74 272 104q51 9 120.5 9t139.5 -19t114 -52q87 -64 87 -172q0 -176 -189 -275q116 -6 186 -79q64 -68 64 -152.5t-28 -152t-86 -117.5q-123 -106 -357 -106q-115 0 -231 34q-28 8 -51 13l-6 184q124 -31 245 -31q240 2 240 155q0 113 -175 142l-159 -33 l1 185q68 9 114 21t75.5 28.5t51.5 37.5q47 45 45 96q-2 101 -158 101q-122 0 -249 -78zM771 0l539 1530h243l-542 -1530h-240zM1343 290l498 889h68l187 -92l-440 -699h285l25 260h230v-260h164v-192h-164v-272h-256v272h-545z" />
<glyph unicode="&#xbf;" horiz-adv-x="1057" d="M61 118v43t18.5 93.5t48.5 101t69 83.5t80 72.5t81 67t72 68.5q103 116 71 264q-5 23 -12.5 48.5t-16.5 58.5h238q78 -117 78 -275q0 -142 -124 -252q-36 -32 -73.5 -62t-73.5 -59.5t-64 -63.5q-63 -76 -63 -172q0 -201 325 -201q102 0 148 11l58 15v-232 q-82 -49 -259.5 -49t-291.5 38q-309 103 -309 402zM374 1352q0 80 57 136q57 58 134 58q74 0 124 -50q52 -52 52 -128q0 -39 -15 -73t-41 -61q-58 -57 -135 -57q-79 0 -128 51q-48 49 -48 124z" />
<glyph unicode="&#xc0;" horiz-adv-x="1421" d="M-15 0l562 1538h322l567 -1538h-347l-102 322h-560l-100 -322h-342zM343 1849l217 131q12 -38 210 -230q32 -31 55 -53.5t30 -28.5l-146 -125q-65 21 -152 95q-153 127 -214 211zM499 551h415l-165 522l-43 157l-44 -157z" />
<glyph unicode="&#xc1;" horiz-adv-x="1421" d="M-15 0l562 1538h322l567 -1538h-347l-102 322h-560l-100 -322h-342zM499 551h415l-165 522l-43 157l-44 -157zM569 1668q28 24 107 103t110 111q69 75 78 98l217 -131q-116 -148 -279 -260q-50 -34 -87 -46z" />
<glyph unicode="&#xc2;" horiz-adv-x="1421" d="M-15 0l562 1538h322l567 -1538h-347l-102 322h-560l-100 -322h-342zM327 1650l274 310h220l276 -308l-165 -92l-221 199l-222 -199zM499 551h415l-165 522l-43 157l-44 -157z" />
<glyph unicode="&#xc3;" horiz-adv-x="1421" d="M-15 0l562 1538h322l567 -1538h-347l-102 322h-560l-100 -322h-342zM277 1732q53 156 196 208q48 18 96.5 18t79 -9.5t54.5 -24t44 -31.5t39 -31q44 -34 86 -34q73 0 155 111l126 -108q-56 -162 -192 -211q-48 -17 -97 -17t-79 10t-53.5 24.5t-43.5 32t-39 32.5 q-47 34 -93 34q-70 0 -154 -102zM499 551h415l-165 522l-43 157l-44 -157z" />
<glyph unicode="&#xc4;" horiz-adv-x="1421" d="M-15 0l562 1538h322l567 -1538h-347l-102 322h-560l-100 -322h-342zM272 1778q0 77 54.5 129.5t135.5 52.5t123 -45.5t42 -101.5t-14 -89.5t-39 -57.5t-59 -38t-92.5 -14t-104.5 44.5t-46 119.5zM499 551h415l-165 522l-43 157l-44 -157zM796 1778q0 77 54.5 129.5 t135.5 52.5t122.5 -45.5t41.5 -101.5t-14 -89.5t-39 -57.5t-59 -38t-73 -14t-70 11.5t-53 32.5q-46 45 -46 120z" />
<glyph unicode="&#xc5;" horiz-adv-x="1421" d="M-15 0l530 1451q-148 67 -148 239q0 148 112 220q91 59 235 59q244 0 313 -153q23 -52 23 -110t-11.5 -95.5t-31.5 -66.5q-40 -60 -107 -90l536 -1454h-347l-102 322h-560l-100 -322h-342zM499 551h415l-165 522l-43 157l-44 -157zM551 1702.5q0 -67.5 44 -101.5 t96.5 -34t81.5 4.5t50 18.5q44 28 44 101q0 95 -96 123q-29 9 -61.5 9t-61 -5t-50.5 -18q-47 -30 -47 -97.5z" />
<glyph unicode="&#xc6;" horiz-adv-x="1939" d="M-111 0l766 1522h1133v-244h-610v-374h468v-241h-468v-412h675v-251h-993v376h-449l-177 -376h-345zM516 598h344v726z" />
<glyph unicode="&#xc7;" horiz-adv-x="1299" d="M100 757q0 366 217 579q205 202 529 202q180 0 340 -42q38 -10 74 -17l-46 -280q-72 40 -115 54q-101 33 -213.5 33t-192.5 -34.5t-139 -99.5q-126 -140 -126 -375q0 -242 122 -392q127 -155 340 -155q146 0 295 64q38 17 58 32l1 -262q-169 -66 -306 -77q33 -70 33 -186 q0 -202 -159 -251q-46 -14 -82 -14t-63 2t-53 6q-62 10 -78 20l20 165q23 -14 74.5 -14t86 36.5t37.5 113.5q1 19 1 38q0 49 -14 88q-298 36 -470 243q-171 206 -171 523z" />
<glyph unicode="&#xc8;" horiz-adv-x="1254" d="M188 0v1522h928v-244h-610v-378h468v-241h-468v-408h675v-251h-993zM332 1849l217 131q12 -38 210 -230q32 -31 55 -53.5t30 -28.5l-146 -125q-65 21 -152 95q-153 127 -214 211z" />
<glyph unicode="&#xc9;" horiz-adv-x="1254" d="M188 0v1522h928v-244h-610v-378h468v-241h-468v-408h675v-251h-993zM558 1668q28 24 107 103t110 111q69 75 78 98l217 -131q-116 -148 -279 -260q-50 -34 -87 -46z" />
<glyph unicode="&#xca;" horiz-adv-x="1254" d="M188 0v1522h928v-244h-610v-378h468v-241h-468v-408h675v-251h-993zM316 1650l274 310h220l276 -308l-165 -92l-221 199l-222 -199z" />
<glyph unicode="&#xcb;" horiz-adv-x="1254" d="M188 0v1522h928v-244h-610v-378h468v-241h-468v-408h675v-251h-993zM261 1778q0 77 54.5 129.5t135.5 52.5t123 -45.5t42 -101.5t-14 -89.5t-39 -57.5t-59 -38t-92.5 -14t-104.5 44.5t-46 119.5zM785 1778q0 77 54.5 129.5t135.5 52.5t122.5 -45.5t41.5 -101.5t-14 -89.5 t-39 -57.5t-59 -38t-73 -14t-70 11.5t-53 32.5q-46 45 -46 120z" />
<glyph unicode="&#xcc;" horiz-adv-x="722" d="M-6 1849l217 131q12 -38 210 -230q32 -31 55 -53.5t30 -28.5l-146 -125q-65 21 -152 95q-153 127 -214 211zM201 0v1522h320v-1522h-320z" />
<glyph unicode="&#xcd;" horiz-adv-x="722" d="M201 0v1522h320v-1522h-320zM219 1668q28 24 107 103t110 111q69 75 78 98l217 -131q-116 -148 -279 -260q-50 -34 -87 -46z" />
<glyph unicode="&#xce;" horiz-adv-x="722" d="M-22 1650l274 310h220l276 -308l-165 -92l-221 199l-222 -199zM201 0v1522h320v-1522h-320z" />
<glyph unicode="&#xcf;" horiz-adv-x="722" d="M-77 1778q0 77 54.5 129.5t135.5 52.5t123 -45.5t42 -101.5t-14 -89.5t-39 -57.5t-59 -38t-92.5 -14t-104.5 44.5t-46 119.5zM201 0v1522h320v-1522h-320zM447 1778q0 77 54.5 129.5t135.5 52.5t122.5 -45.5t41.5 -101.5t-14 -89.5t-39 -57.5t-59 -38t-73 -14t-70 11.5 t-53 32.5q-46 45 -46 120z" />
<glyph unicode="&#xd0;" horiz-adv-x="1554" d="M69 694v201h119v627h151q34 0 118 6q159 10 251 10q561 0 701 -425q45 -137 45 -322t-54 -337q-110 -307 -398 -418q-137 -52 -306 -52q-107 0 -196 8t-158 8h-154v694h-119zM509 246q65 -18 180 -17.5t189.5 31.5t127.5 96q112 137 112 411q0 291 -108 414 q-103 117 -332 117l-169 -14v-389h337v-201h-337v-448z" />
<glyph unicode="&#xd1;" horiz-adv-x="1622" d="M188 0v1522h295l567 -895l115 -228l-29 366v757h296v-1522h-319l-543 861l-121 243l35 -363v-741h-296zM376 1732q53 156 196 208q48 18 96.5 18t79 -9.5t54.5 -24t44 -31.5t39 -31q44 -34 86 -34q73 0 155 111l126 -108q-56 -162 -192 -211q-48 -17 -97 -17t-79 10 t-53.5 24.5t-43.5 32t-39 32.5q-47 34 -93 34q-70 0 -154 -102z" />
<glyph unicode="&#xd2;" horiz-adv-x="1595" d="M98 770q0 186 57.5 334.5t153.5 241.5q197 192 533 192q300 0 478 -208q177 -206 177 -546q0 -395 -205 -605q-190 -195 -518 -195q-154 0 -277 53q-262 113 -355 406q-44 141 -44 327zM427 775q0 -130 23 -227.5t69 -170.5t116 -114.5t159 -41.5t157.5 32.5t116.5 100.5 q100 142 100 419q0 234 -88 374q-94 149 -266 149q-270 0 -356 -289q-31 -102 -31 -232zM455 1849l217 131q12 -38 210 -230q32 -31 55 -53.5t30 -28.5l-146 -125q-65 21 -152 95q-153 127 -214 211z" />
<glyph unicode="&#xd3;" horiz-adv-x="1595" d="M98 770q0 186 57.5 334.5t153.5 241.5q197 192 533 192q300 0 478 -208q177 -206 177 -546q0 -395 -205 -605q-190 -195 -518 -195q-154 0 -277 53q-262 113 -355 406q-44 141 -44 327zM427 775q0 -130 23 -227.5t69 -170.5t116 -114.5t159 -41.5t157.5 32.5t116.5 100.5 q100 142 100 419q0 234 -88 374q-94 149 -266 149q-270 0 -356 -289q-31 -102 -31 -232zM681 1668q28 24 107 103t110 111q69 75 78 98l217 -131q-116 -148 -279 -260q-50 -34 -87 -46z" />
<glyph unicode="&#xd4;" horiz-adv-x="1595" d="M98 770q0 186 57.5 334.5t153.5 241.5q197 192 533 192q300 0 478 -208q177 -206 177 -546q0 -395 -205 -605q-190 -195 -518 -195q-154 0 -277 53q-262 113 -355 406q-44 141 -44 327zM427 775q0 -130 23 -227.5t69 -170.5t116 -114.5t159 -41.5t157.5 32.5t116.5 100.5 q100 142 100 419q0 234 -88 374q-94 149 -266 149q-270 0 -356 -289q-31 -102 -31 -232zM439 1650l274 310h220l276 -308l-165 -92l-221 199l-222 -199z" />
<glyph unicode="&#xd5;" horiz-adv-x="1595" d="M98 770q0 186 57.5 334.5t153.5 241.5q197 192 533 192q300 0 478 -208q177 -206 177 -546q0 -395 -205 -605q-190 -195 -518 -195q-154 0 -277 53q-262 113 -355 406q-44 141 -44 327zM389 1732q53 156 196 208q48 18 96.5 18t79 -9.5t54.5 -24t44 -31.5t39 -31 q44 -34 86 -34q73 0 155 111l126 -108q-56 -162 -192 -211q-48 -17 -97 -17t-79 10t-53.5 24.5t-43.5 32t-39 32.5q-47 34 -93 34q-70 0 -154 -102zM427 775q0 -130 23 -227.5t69 -170.5t116 -114.5t159 -41.5t157.5 32.5t116.5 100.5q100 142 100 419q0 234 -88 374 q-94 149 -266 149q-270 0 -356 -289q-31 -102 -31 -232z" />
<glyph unicode="&#xd6;" horiz-adv-x="1595" d="M98 770q0 186 57.5 334.5t153.5 241.5q197 192 533 192q300 0 478 -208q177 -206 177 -546q0 -395 -205 -605q-190 -195 -518 -195q-154 0 -277 53q-262 113 -355 406q-44 141 -44 327zM384 1778q0 77 54.5 129.5t135.5 52.5t123 -45.5t42 -101.5t-14 -89.5t-39 -57.5 t-59 -38t-92.5 -14t-104.5 44.5t-46 119.5zM427 775q0 -130 23 -227.5t69 -170.5t116 -114.5t159 -41.5t157.5 32.5t116.5 100.5q100 142 100 419q0 234 -88 374q-94 149 -266 149q-270 0 -356 -289q-31 -102 -31 -232zM908 1778q0 77 54.5 129.5t135.5 52.5t122.5 -45.5 t41.5 -101.5t-14 -89.5t-39 -57.5t-59 -38t-73 -14t-70 11.5t-53 32.5q-46 45 -46 120z" />
<glyph unicode="&#xd7;" horiz-adv-x="1380" d="M168 408l359 368l-359 384l171 160l354 -378l351 378l171 -160l-359 -383l356 -369l-171 -171l-351 368l-351 -368z" />
<glyph unicode="&#xd8;" horiz-adv-x="1595" d="M98 693q0 263 57.5 411.5t153.5 241.5q197 192 536 192q80 0 153 -17l95 260l125 -32l-98 -268q182 -82 282 -271q95 -181 95 -428q0 -393 -205 -603q-189 -195 -510 -195q-106 0 -198 23l-83 -227l-125 32l87 240q-272 138 -345 480q-20 98 -20 161zM427 758 q0 -292 134 -436l350 960q-47 14 -112 14t-135 -29t-123 -93q-114 -139 -114 -416zM670 245q57 -24 135 -24t146.5 32.5t116.5 100.5q100 142 100 419q0 305 -144 443z" />
<glyph unicode="&#xd9;" horiz-adv-x="1525" d="M150 653l2 869h315l-2 -852q0 -252 77 -349q67 -83 225 -83q151 0 219 89q77 100 77 343v852h313v-882q0 -320 -155.5 -488t-462.5 -168q-480 0 -578 394q-30 124 -30 275zM400 1849l217 131q12 -38 210 -230q32 -31 55 -53.5t30 -28.5l-146 -125q-65 21 -152 95 q-153 127 -214 211z" />
<glyph unicode="&#xda;" horiz-adv-x="1525" d="M150 653l2 869h315l-2 -852q0 -252 77 -349q67 -83 225 -83q151 0 219 89q77 100 77 343v852h313v-882q0 -320 -155.5 -488t-462.5 -168q-480 0 -578 394q-30 124 -30 275zM626 1668q28 24 107 103t110 111q69 75 78 98l217 -131q-116 -148 -279 -260q-50 -34 -87 -46z " />
<glyph unicode="&#xdb;" horiz-adv-x="1525" d="M150 653l2 869h315l-2 -852q0 -252 77 -349q67 -83 225 -83q151 0 219 89q77 100 77 343v852h313v-882q0 -320 -155.5 -488t-462.5 -168q-480 0 -578 394q-30 124 -30 275zM384 1650l274 310h220l276 -308l-165 -92l-221 199l-222 -199z" />
<glyph unicode="&#xdc;" horiz-adv-x="1525" d="M150 653l2 869h315l-2 -852q0 -252 77 -349q67 -83 225 -83q151 0 219 89q77 100 77 343v852h313v-882q0 -320 -155.5 -488t-462.5 -168q-480 0 -578 394q-30 124 -30 275zM329 1778q0 77 54.5 129.5t135.5 52.5t123 -45.5t42 -101.5t-14 -89.5t-39 -57.5t-59 -38 t-92.5 -14t-104.5 44.5t-46 119.5zM853 1778q0 77 54.5 129.5t135.5 52.5t122.5 -45.5t41.5 -101.5t-14 -89.5t-39 -57.5t-59 -38t-73 -14t-70 11.5t-53 32.5q-46 45 -46 120z" />
<glyph unicode="&#xdd;" horiz-adv-x="1241" d="M-50 1522h350l280 -590l44 -114l38 114l288 590h341l-511 -989v-533h-319v535zM497 1668q28 24 107 103t110 111q69 75 78 98l217 -131q-116 -148 -279 -260q-50 -34 -87 -46z" />
<glyph unicode="&#xde;" horiz-adv-x="1359" d="M188 0v1522h318v-248q179 13 272 13t191.5 -29t168.5 -88q144 -123 144 -365q0 -260 -150 -403q-150 -145 -412 -145q-124 0 -214 9v-266h-318zM506 510q51 -10 134 -10t138.5 11t97.5 43.5t66.5 91.5t24.5 170t-75 171t-194.5 60t-191.5 -19v-518z" />
<glyph unicode="&#xdf;" horiz-adv-x="1395" d="M54 924v195l156 29q46 219 213 330q151 101 381 101q202 0 322 -85q119 -85 119 -226q0 -137 -123 -230q-77 -58 -100.5 -88.5t-23.5 -65t25.5 -67t63.5 -65t83 -69.5t83 -85q89 -112 89 -259q0 -191 -133 -281q-110 -74 -288 -74t-241 33v223q72 -43 181 -43 q105 0 148 65q16 25 16 69t-22 83t-55 73.5t-71.5 68.5t-70.5 74q-77 94 -77 207q0 104 96 201q60 61 78 102t18 98t-42 95.5t-109.5 38.5t-113.5 -21t-78 -70q-68 -102 -68 -330v-951h-317v924h-139z" />
<glyph unicode="&#xe0;" horiz-adv-x="1223" d="M102 355q0 195 199 285q148 66 457 66v72q0 93 -40 119q-42 27 -186 27q-83 0 -180.5 -32.5t-133.5 -48.5l-69 200q118 70 321 107q69 12 162.5 12t180.5 -18.5t144 -65.5q113 -95 113 -333v-761h-182q-64 0 -83 12q-34 23 -34 92v8q-123 -112 -297 -112q-167 0 -270 104 q-102 104 -102 267zM191 1634l215 174q91 -155 250 -328q47 -51 91 -91l-149 -137q-71 30 -210 151q-150 131 -197 231zM424 352q0 -37 12 -67.5t33 -50.5q41 -39 112 -39q80 0 151 42q18 11 26 21v272q-165 0 -270 -58q-64 -34 -64 -120z" />
<glyph unicode="&#xe1;" horiz-adv-x="1223" d="M102 355q0 195 199 285q148 66 457 66v72q0 93 -40 119q-42 27 -186 27q-83 0 -180.5 -32.5t-133.5 -48.5l-69 200q118 70 321 107q69 12 162.5 12t180.5 -18.5t144 -65.5q113 -95 113 -333v-761h-182q-64 0 -83 12q-34 23 -34 92v8q-123 -112 -297 -112q-167 0 -270 104 q-102 104 -102 267zM424 352q0 -37 12 -67.5t33 -50.5q41 -39 112 -39q80 0 151 42q18 11 26 21v272q-165 0 -270 -58q-64 -34 -64 -120zM493 1389q197 186 341 419l214 -174q-55 -125 -278 -298q-81 -63 -128 -84z" />
<glyph unicode="&#xe2;" horiz-adv-x="1223" d="M102 355q0 195 199 285q148 66 457 66v72q0 93 -40 119q-42 27 -186 27q-83 0 -180.5 -32.5t-133.5 -48.5l-69 200q118 70 321 107q69 12 162.5 12t180.5 -18.5t144 -65.5q113 -95 113 -333v-761h-182q-64 0 -83 12q-34 23 -34 92v8q-123 -112 -297 -112q-167 0 -270 104 q-102 104 -102 267zM231 1326l286 373h223l283 -372l-161 -90l-233 246l-242 -246zM424 352q0 -37 12 -67.5t33 -50.5q41 -39 112 -39q80 0 151 42q18 11 26 21v272q-165 0 -270 -58q-64 -34 -64 -120z" />
<glyph unicode="&#xe3;" horiz-adv-x="1223" d="M102 355q0 195 199 285q148 66 457 66v72q0 93 -40 119q-42 27 -186 27q-83 0 -180.5 -32.5t-133.5 -48.5l-69 200q118 70 321 107q69 12 162.5 12t180.5 -18.5t144 -65.5q113 -95 113 -333v-761h-182q-64 0 -83 12q-34 23 -34 92v8q-123 -112 -297 -112q-167 0 -270 104 q-102 104 -102 267zM180 1473q53 156 196 209q48 17 98 17t81.5 -9.5t55.5 -24t43 -31.5t38 -32q42 -33 83 -33q73 0 155 111l126 -108q-56 -162 -192 -211q-48 -17 -97 -17t-79 10t-53.5 24.5t-43.5 32t-39 31.5q-47 35 -93 35q-70 0 -154 -102zM424 352q0 -37 12 -67.5 t33 -50.5q41 -39 112 -39q80 0 151 42q18 11 26 21v272q-165 0 -270 -58q-64 -34 -64 -120z" />
<glyph unicode="&#xe4;" horiz-adv-x="1223" d="M102 355q0 195 199 285q148 66 457 66v72q0 93 -40 119q-42 27 -186 27q-83 0 -180.5 -32.5t-133.5 -48.5l-69 200q118 70 321 107q69 12 162.5 12t180.5 -18.5t144 -65.5q113 -95 113 -333v-761h-182q-64 0 -83 12q-34 23 -34 92v8q-123 -112 -297 -112q-167 0 -270 104 q-102 104 -102 267zM209 1478q0 76 54 130q55 55 131 55q121 0 154 -101q10 -31 10 -68t-14 -71t-38.5 -59t-58 -39.5t-72 -14.5t-69 12.5t-52.5 35.5q-45 46 -45 120zM424 352q0 -37 12 -67.5t33 -50.5q41 -39 112 -39q80 0 151 42q18 11 26 21v272q-165 0 -270 -58 q-64 -34 -64 -120zM694 1478q0 76 54 130q55 55 131 55q121 0 154 -101q10 -31 10 -68t-14 -71t-38.5 -59t-58 -39.5t-72 -14.5t-69 12.5t-52.5 35.5q-45 46 -45 120z" />
<glyph unicode="&#xe5;" horiz-adv-x="1223" d="M102 355q0 195 199 285q148 66 457 66v72q0 93 -40 119q-42 27 -186 27q-83 0 -180.5 -32.5t-133.5 -48.5l-69 200q118 70 321 107q69 12 162.5 12t180.5 -18.5t144 -65.5q113 -95 113 -333v-761h-182q-64 0 -83 12q-34 23 -34 92v8q-123 -112 -297 -112q-167 0 -270 104 q-102 104 -102 267zM284 1571q0 111 31.5 165.5t80.5 87.5q93 64 235 64q243 0 313 -162q23 -53 22.5 -126t-29.5 -127.5t-77 -90t-110 -52t-135.5 -16.5t-136.5 20q-127 42 -172 152q-22 52 -22 85zM424 352q0 -37 12 -67.5t33 -50.5q41 -39 112 -39q80 0 151 42 q18 11 26 21v272q-165 0 -270 -58q-64 -34 -64 -120zM468 1607q0 -62 44 -102q43 -39 96 -39t82 6t50 22q44 32 44 106q0 99 -96 132q-29 10 -63 10q-157 0 -157 -135z" />
<glyph unicode="&#xe6;" horiz-adv-x="1851" d="M102 330q0 159 126 256q72 56 156.5 76.5t143.5 28.5q109 15 223 15v61q0 87 -45 123q-43 34 -152 34q-121 0 -268 -55q-38 -14 -58 -26l-69 200q123 69 303 104q78 15 182 15q231 0 316 -115q141 109 348 109q303 0 406 -237q38 -86 39 -220t-10 -204h-675 q19 -279 305 -279q112 0 191 23.5t102 35.5l51 -177q-94 -77 -293 -105q-64 -9 -130 -9q-274 0 -416 175q-154 -175 -403 -175q-160 0 -263 88q-110 93 -110 258zM422 345.5q0 -37.5 12.5 -66t33.5 -47.5q42 -37 113 -37q98 0 181 65q24 19 39 38q-40 102 -44 232 q-140 0 -229 -41q-54 -24 -70 -41t-26 -41t-10 -61.5zM1074 668h390q1 23 1 44q0 222 -174 222q-93 0 -143 -57q-59 -66 -74 -209z" />
<glyph unicode="&#xe7;" horiz-adv-x="1048" d="M95 556q0 266 139 426q152 174 430 174q154 0 254 -38q28 -10 42 -20l-39 -241q-82 44 -225 44q-186 0 -262 -161q-29 -64 -29 -155t19 -154.5t57 -108.5q75 -87 218.5 -87t232.5 47l45 -185q-88 -86 -262 -107q34 -71 34 -188q0 -203 -159 -252q-46 -14 -82 -14t-63 2 t-53 6q-62 10 -78 20l20 165q23 -14 74.5 -14t86 36.5t37.5 113.5q1 19 1 39q0 49 -14 88q-207 33 -318 190q-106 148 -106 374z" />
<glyph unicode="&#xe8;" horiz-adv-x="1190" d="M95 574q0 256 141 415q149 167 411 167q303 0 407 -237q37 -86 38 -220t-10 -204h-675q19 -279 305 -279q112 0 191 23.5t102 35.5l51 -177q-94 -77 -293 -105q-64 -9 -162.5 -9t-198.5 40t-168 116q-139 154 -139 434zM199 1634l215 174q91 -155 250 -328q47 -51 91 -91 l-149 -137q-71 30 -210 151q-150 131 -197 231zM413 668h390q1 23 1 44q0 222 -174 222q-93 0 -144 -57q-58 -66 -73 -209z" />
<glyph unicode="&#xe9;" horiz-adv-x="1190" d="M95 574q0 256 141 415q149 167 411 167q303 0 407 -237q37 -86 38 -220t-10 -204h-675q19 -279 305 -279q112 0 191 23.5t102 35.5l51 -177q-94 -77 -293 -105q-64 -9 -162.5 -9t-198.5 40t-168 116q-139 154 -139 434zM413 668h390q1 23 1 44q0 222 -174 222 q-93 0 -144 -57q-58 -66 -73 -209zM501 1389q197 186 341 419l214 -174q-55 -125 -278 -298q-81 -63 -128 -84z" />
<glyph unicode="&#xea;" horiz-adv-x="1190" d="M95 574q0 256 141 415q149 167 411 167q303 0 407 -237q37 -86 38 -220t-10 -204h-675q19 -279 305 -279q112 0 191 23.5t102 35.5l51 -177q-94 -77 -293 -105q-64 -9 -162.5 -9t-198.5 40t-168 116q-139 154 -139 434zM239 1326l286 373h223l283 -372l-161 -90l-233 246 l-242 -246zM413 668h390q1 23 1 44q0 222 -174 222q-93 0 -144 -57q-58 -66 -73 -209z" />
<glyph unicode="&#xeb;" horiz-adv-x="1190" d="M95 574q0 256 141 415q149 167 411 167q303 0 407 -237q37 -86 38 -220t-10 -204h-675q19 -279 305 -279q112 0 191 23.5t102 35.5l51 -177q-94 -77 -293 -105q-64 -9 -162.5 -9t-198.5 40t-168 116q-139 154 -139 434zM217 1478q0 76 54 130q55 55 131 55 q121 0 154 -101q10 -31 10 -68t-14 -71t-38.5 -59t-58 -39.5t-72 -14.5t-69 12.5t-52.5 35.5q-45 46 -45 120zM413 668h390q1 23 1 44q0 222 -174 222q-93 0 -144 -57q-58 -66 -73 -209zM702 1478q0 76 54 130q55 55 131 55q121 0 154 -101q10 -31 10 -68t-14 -71t-38.5 -59 t-58 -39.5t-72 -14.5t-69 12.5t-52.5 35.5q-45 46 -45 120z" />
<glyph unicode="&#xec;" horiz-adv-x="660" d="M-104 1634l215 174q91 -155 250 -328q47 -51 91 -91l-149 -137q-71 30 -210 151q-150 131 -197 231zM174 0v1140h312v-1140h-312z" />
<glyph unicode="&#xed;" horiz-adv-x="660" d="M174 0v1140h312v-1140h-312zM197 1389q197 186 341 419l214 -174q-55 -125 -278 -298q-81 -63 -128 -84z" />
<glyph unicode="&#xee;" horiz-adv-x="660" d="M-64 1326l286 373h223l283 -372l-161 -90l-233 246l-242 -246zM174 0v1140h312v-1140h-312z" />
<glyph unicode="&#xef;" horiz-adv-x="660" d="M-75 1477q0 76 54 130q55 55 131 55q121 0 154 -102q10 -30 10 -67t-14 -71t-38.5 -59t-58 -39.5t-72 -14.5t-69 12.5t-52.5 34.5q-45 47 -45 121zM174 0v1140h312v-1140h-312zM386 1477q0 76 54 130q55 55 131 55q121 0 154 -102q10 -30 10 -67t-14 -71t-38.5 -59 t-58 -39.5t-72 -14.5t-69 12.5t-52.5 34.5q-45 47 -45 121z" />
<glyph unicode="&#xf0;" horiz-adv-x="1294" d="M95 550q0 276 137 436q141 163 392 163q109 0 191 -53q-62 187 -247 324l-117 -158l-149 99l122 157q-98 61 -204 93l53 176q180 -54 276 -108l125 173l152 -100q-19 -25 -38.5 -50t-41.5 -53.5t-43 -54.5q231 -131 373 -392q139 -256 139 -551q0 -322 -163 -506 q-153 -172 -404 -172q-250 0 -402 159q-151 159 -151 418zM419 552q0 -177 64.5 -263.5t176.5 -86.5q100 0 164 96q68 101 68 276v60q0 110 -6 182q-46 76 -147 106q-36 10 -85.5 10t-94.5 -25.5t-76 -74.5q-64 -103 -64 -280z" />
<glyph unicode="&#xf1;" horiz-adv-x="1352" d="M174 0v1140h283l6 -122q112 85 265 125q62 16 133 16t134 -20.5t107 -72.5q88 -104 88 -351v-715h-312v648q0 143 -35 196q-34 52 -126 52q-85 0 -175 -48q-30 -16 -56 -39v-809h-312zM315 1473q53 156 196 209q48 17 98 17t81.5 -9.5t55.5 -24t43 -31.5t38 -32 q42 -33 83 -33q73 0 155 111l126 -108q-56 -162 -192 -211q-48 -17 -97 -17t-79 10t-53.5 24.5t-43.5 32t-39 31.5q-47 35 -93 35q-70 0 -154 -102z" />
<glyph unicode="&#xf2;" horiz-adv-x="1302" d="M96 595.5q0 130.5 44.5 238t119.5 178.5q152 144 402 144q284 0 424 -183q120 -156 120 -411q0 -280 -163 -434q-152 -144 -402 -144q-283 0 -425 183q-65 84 -92.5 191t-27.5 237.5zM225 1634l215 174q91 -155 250 -328q47 -51 91 -91l-149 -137q-71 30 -210 151 q-150 131 -197 231zM419 586q0 -259 125 -350q44 -32 109 -32q230 0 230 357q0 253 -123 341q-44 31 -105 32q-236 0 -236 -348z" />
<glyph unicode="&#xf3;" horiz-adv-x="1302" d="M96 595.5q0 130.5 44.5 238t119.5 178.5q152 144 402 144q284 0 424 -183q120 -156 120 -411q0 -280 -163 -434q-152 -144 -402 -144q-283 0 -425 183q-65 84 -92.5 191t-27.5 237.5zM419 586q0 -259 125 -350q44 -32 109 -32q230 0 230 357q0 253 -123 341 q-44 31 -105 32q-236 0 -236 -348zM527 1389q197 186 341 419l214 -174q-55 -125 -278 -298q-81 -63 -128 -84z" />
<glyph unicode="&#xf4;" horiz-adv-x="1302" d="M96 595.5q0 130.5 44.5 238t119.5 178.5q152 144 402 144q284 0 424 -183q120 -156 120 -411q0 -280 -163 -434q-152 -144 -402 -144q-283 0 -425 183q-65 84 -92.5 191t-27.5 237.5zM265 1326l286 373h223l283 -372l-161 -90l-233 246l-242 -246zM419 586 q0 -259 125 -350q44 -32 109 -32q230 0 230 357q0 253 -123 341q-44 31 -105 32q-236 0 -236 -348z" />
<glyph unicode="&#xf5;" horiz-adv-x="1302" d="M96 595.5q0 130.5 44.5 238t119.5 178.5q152 144 402 144q284 0 424 -183q120 -156 120 -411q0 -280 -163 -434q-152 -144 -402 -144q-283 0 -425 183q-65 84 -92.5 191t-27.5 237.5zM214 1473q53 156 196 209q48 17 98 17t81.5 -9.5t55.5 -24t43 -31.5t38 -32 q42 -33 83 -33q73 0 155 111l126 -108q-56 -162 -192 -211q-48 -17 -97 -17t-79 10t-53.5 24.5t-43.5 32t-39 31.5q-47 35 -93 35q-70 0 -154 -102zM419 586q0 -259 125 -350q44 -32 109 -32q230 0 230 357q0 253 -123 341q-44 31 -105 32q-236 0 -236 -348z" />
<glyph unicode="&#xf6;" horiz-adv-x="1302" d="M96 595.5q0 130.5 44.5 238t119.5 178.5q152 144 402 144q284 0 424 -183q120 -156 120 -411q0 -280 -163 -434q-152 -144 -402 -144q-283 0 -425 183q-65 84 -92.5 191t-27.5 237.5zM243 1478q0 76 54 130q55 55 131 55q121 0 154 -101q10 -31 10 -68t-14 -71t-38.5 -59 t-58 -39.5t-72 -14.5t-69 12.5t-52.5 35.5q-45 46 -45 120zM419 586q0 -259 125 -350q44 -32 109 -32q230 0 230 357q0 253 -123 341q-44 31 -105 32q-236 0 -236 -348zM728 1478q0 76 54 130q55 55 131 55q121 0 154 -101q10 -31 10 -68t-14 -71t-38.5 -59t-58 -39.5 t-72 -14.5t-69 12.5t-52.5 35.5q-45 46 -45 120z" />
<glyph unicode="&#xf7;" horiz-adv-x="1403" d="M203 655v234h997v-234h-997zM523 326q0 41 16.5 78t44.5 66q62 61 145 61q129 0 171 -113q12 -34 12 -75t-16 -79t-44 -66q-59 -61 -144 -61q-81 0 -132 53q-53 54 -53 136zM527 1213q0 82 61 145q60 61 144 61q131 0 172 -113q12 -34 12 -75t-16 -79t-43.5 -66 t-65 -44.5t-78.5 -16.5t-75 14t-58 39q-53 54 -53 135z" />
<glyph unicode="&#xf8;" horiz-adv-x="1302" d="M96 583q0 274 164 429q75 71 177.5 107.5t195.5 36.5t151 -10l79 221l125 -32l-80 -225q155 -66 232 -224q66 -136 66 -329q0 -275 -163 -429q-152 -144 -402 -144q-67 0 -128 11l-76 -215l-125 32l78 219q-294 132 -294 552zM419 586q0 -185 66 -287l222 628 q-28 7 -52 7q-236 0 -236 -348zM590 213q32 -9 63 -9q230 0 230 357q0 181 -69 285z" />
<glyph unicode="&#xf9;" horiz-adv-x="1326" d="M162 474v666h312v-663q0 -156 42 -209q36 -45 133 -45q78 0 157 43q21 12 34 22v852h312v-1156h-206q-37 0 -56.5 10.5t-19.5 47.5v51q-102 -73 -246 -101q-45 -8 -87 -8q-226 0 -310 136q-65 104 -65 354zM239 1634l215 174q91 -155 250 -328q47 -51 91 -91l-149 -137 q-71 30 -210 151q-150 131 -197 231z" />
<glyph unicode="&#xfa;" horiz-adv-x="1326" d="M162 474v666h312v-663q0 -156 42 -209q36 -45 133 -45q78 0 157 43q21 12 34 22v852h312v-1156h-206q-37 0 -56.5 10.5t-19.5 47.5v51q-102 -73 -246 -101q-45 -8 -87 -8q-226 0 -310 136q-65 104 -65 354zM541 1389q197 186 341 419l214 -174q-55 -125 -278 -298 q-81 -63 -128 -84z" />
<glyph unicode="&#xfb;" horiz-adv-x="1326" d="M162 474v666h312v-663q0 -156 42 -209q36 -45 133 -45q78 0 157 43q21 12 34 22v852h312v-1156h-206q-37 0 -56.5 10.5t-19.5 47.5v51q-102 -73 -246 -101q-45 -8 -87 -8q-226 0 -310 136q-65 104 -65 354zM279 1326l286 373h223l283 -372l-161 -90l-233 246l-242 -246z " />
<glyph unicode="&#xfc;" horiz-adv-x="1326" d="M162 474v666h312v-663q0 -156 42 -209q36 -45 133 -45q78 0 157 43q21 12 34 22v852h312v-1156h-206q-37 0 -56.5 10.5t-19.5 47.5v51q-102 -73 -246 -101q-45 -8 -87 -8q-226 0 -310 136q-65 104 -65 354zM257 1478q0 76 54 130q55 55 131 55q121 0 154 -101 q10 -31 10 -68t-14 -71t-38.5 -59t-58 -39.5t-72 -14.5t-69 12.5t-52.5 35.5q-45 46 -45 120zM742 1478q0 76 54 130q55 55 131 55q121 0 154 -101q10 -31 10 -68t-14 -71t-38.5 -59t-58 -39.5t-72 -14.5t-69 12.5t-52.5 35.5q-45 46 -45 120z" />
<glyph unicode="&#xfd;" horiz-adv-x="1188" d="M17 1140h338l173 -609l83 -330l216 939h335l-355 -1170q-116 -376 -383 -456q-73 -21 -118 -21t-68.5 2t-47.5 5q-62 6 -70 12v253q53 -20 101.5 -20t91.5 4t85 28q96 55 140 223h-134zM479 1389q197 186 341 419l214 -174q-55 -125 -278 -298q-81 -63 -128 -84z" />
<glyph unicode="&#xfe;" horiz-adv-x="1340" d="M168 -507v2168h312v-437l-8 -188q126 120 319 120q194 0 317 -134q137 -147 137 -410q0 -283 -165 -460q-79 -83 -188.5 -129t-214 -46t-196.5 11l5 -157v-338h-318zM480 232q37 -39 176 -39q115 0 186 103q76 109 76 302q0 259 -130 309q-42 16 -93 16q-129 0 -215 -71 v-620z" />
<glyph unicode="&#xff;" horiz-adv-x="1188" d="M17 1140h338l173 -609l83 -330l216 939h335l-355 -1170q-116 -376 -383 -456q-73 -21 -118 -21t-68.5 2t-47.5 5q-62 6 -70 12v253q53 -20 101.5 -20t91.5 4t85 28q96 55 140 223h-134zM195 1478q0 76 54 130q55 55 131 55q121 0 154 -101q10 -31 10 -68t-14 -71 t-38.5 -59t-58 -39.5t-72 -14.5t-69 12.5t-52.5 35.5q-45 46 -45 120zM680 1478q0 76 54 130q55 55 131 55q121 0 154 -101q10 -31 10 -68t-14 -71t-38.5 -59t-58 -39.5t-72 -14.5t-69 12.5t-52.5 35.5q-45 46 -45 120z" />
<glyph unicode="&#x152;" horiz-adv-x="2133" d="M106 748q0 377 212 592q190 194 502 198q144 0 234 -47v31h928v-244h-610v-374h450v-241h-450v-412h675v-251h-993v41q-106 -57 -267.5 -57t-289.5 58q-257 117 -349 412q-42 135 -42 294zM431 751q0 -113 24.5 -212t71.5 -169q99 -149 273 -149t254 98v871 q-91 106 -234 106q-304 0 -373 -350q-16 -82 -16 -195z" />
<glyph unicode="&#x153;" horiz-adv-x="1962" d="M96 578q0 281 160 434q152 144 398.5 144t380.5 -143q145 143 384 143q305 0 409 -237q37 -86 37 -220t-11 -204h-675q19 -279 305 -279q112 0 191 23.5t102 35.5l51 -177q-94 -77 -293 -105q-64 -9 -130 -9q-247 0 -382 141q-145 -141 -388 -141q-283 0 -422 183 q-117 154 -117 411zM419 586q0 -261 119 -350q44 -32 109 -32q226 0 226 357q0 254 -120 341q-43 31 -104.5 31.5t-105 -22.5t-71.5 -67q-53 -85 -53 -258zM1185 668h390q1 23 1 44q0 222 -174 222q-93 0 -144 -57q-58 -66 -73 -209z" />
<glyph unicode="&#x178;" horiz-adv-x="1241" d="M-50 1522h350l280 -590l44 -114l38 114l288 590h341l-511 -989v-533h-319v535zM200 1778q0 77 54.5 129.5t135.5 52.5t123 -45.5t42 -101.5t-14 -89.5t-39 -57.5t-59 -38t-92.5 -14t-104.5 44.5t-46 119.5zM724 1778q0 77 54.5 129.5t135.5 52.5t122.5 -45.5t41.5 -101.5 t-14 -89.5t-39 -57.5t-59 -38t-73 -14t-70 11.5t-53 32.5q-46 45 -46 120z" />
<glyph unicode="&#x2c6;" horiz-adv-x="878" d="M43 1326l286 373h223l283 -372l-161 -90l-233 246l-242 -246z" />
<glyph unicode="&#x2dc;" horiz-adv-x="937" d="M32 1473q53 156 196 209q48 17 98 17t81.5 -9.5t55.5 -24t43 -31.5t38 -32q42 -33 83 -33q73 0 155 111l126 -108q-56 -162 -192 -211q-48 -17 -97 -17t-79 10t-53.5 24.5t-43.5 32t-39 31.5q-47 35 -93 35q-70 0 -154 -102z" />
<glyph unicode="&#x2000;" horiz-adv-x="990" />
<glyph unicode="&#x2001;" horiz-adv-x="1980" />
<glyph unicode="&#x2002;" horiz-adv-x="990" />
<glyph unicode="&#x2003;" horiz-adv-x="1980" />
<glyph unicode="&#x2004;" horiz-adv-x="660" />
<glyph unicode="&#x2005;" horiz-adv-x="495" />
<glyph unicode="&#x2006;" horiz-adv-x="330" />
<glyph unicode="&#x2007;" horiz-adv-x="330" />
<glyph unicode="&#x2008;" horiz-adv-x="247" />
<glyph unicode="&#x2009;" horiz-adv-x="396" />
<glyph unicode="&#x200a;" horiz-adv-x="110" />
<glyph unicode="&#x2010;" horiz-adv-x="1360" d="M255 644v245h850v-245h-850z" />
<glyph unicode="&#x2011;" horiz-adv-x="1360" d="M255 644v245h850v-245h-850z" />
<glyph unicode="&#x2012;" horiz-adv-x="1360" d="M255 644v245h850v-245h-850z" />
<glyph unicode="&#x2013;" horiz-adv-x="1702" d="M245 644v245h1212v-245h-1212z" />
<glyph unicode="&#x2014;" horiz-adv-x="2413" d="M245 644v245h1923v-245h-1923z" />
<glyph unicode="&#x2018;" horiz-adv-x="560" d="M94 1265.5q0 111.5 22.5 186t55.5 131.5q57 102 126 153l130 -83v-28q-49 -55 -66 -194q-4 -39 -4 -77t8.5 -75.5t21.5 -66.5q27 -59 60 -77v-71l-169 -124q-78 27 -129 118q-56 96 -56 207.5z" />
<glyph unicode="&#x2019;" horiz-adv-x="560" d="M94 1541v71l169 124q77 -28 129 -117q56 -97 56 -208t-22.5 -186t-55.5 -132q-54 -96 -126 -153l-130 83v28q49 58 64 194q5 39 5 77.5t-8.5 75.5t-21.5 66q-27 60 -59 77z" />
<glyph unicode="&#x201a;" horiz-adv-x="560" d="M94 69v71l169 124q77 -28 129 -117q56 -97 56 -208t-22.5 -186t-55.5 -132q-54 -96 -126 -153l-130 83v28q49 58 64 194q5 39 5 77.5t-8.5 75.5t-21.5 66q-27 60 -59 77z" />
<glyph unicode="&#x201c;" horiz-adv-x="1108" d="M94 1265.5q0 111.5 22.5 186t55.5 131.5q57 102 126 153l130 -83v-28q-49 -55 -66 -194q-4 -39 -4 -77t8.5 -75.5t21.5 -66.5q27 -59 60 -77v-71l-169 -124q-78 27 -129 118q-56 96 -56 207.5zM642 1265.5q0 111.5 22.5 186t55.5 131.5q57 102 126 153l130 -83v-28 q-49 -55 -66 -194q-4 -39 -4 -77t8.5 -75.5t21.5 -66.5q27 -59 60 -77v-71l-169 -124q-78 27 -129 118q-56 96 -56 207.5z" />
<glyph unicode="&#x201d;" horiz-adv-x="1108" d="M94 1541v71l169 124q77 -28 129 -117q56 -97 56 -208t-22.5 -186t-55.5 -132q-54 -96 -126 -153l-130 83v28q49 58 64 194q5 39 5 77.5t-8.5 75.5t-21.5 66q-27 60 -59 77zM642 1541v71l169 124q77 -28 129 -117q56 -97 56 -208t-22.5 -186t-55.5 -132q-54 -96 -126 -153 l-130 83v28q49 58 64 194q5 39 5 77.5t-8.5 75.5t-21.5 66q-27 60 -59 77z" />
<glyph unicode="&#x201e;" horiz-adv-x="1108" d="M94 81v71l169 124q77 -28 129 -117q56 -97 56 -208t-22.5 -186t-55.5 -132q-54 -96 -126 -153l-130 83v28q49 58 64 194q5 39 5 77.5t-8.5 75.5t-21.5 66q-27 60 -59 77zM642 81v71l169 124q77 -28 129 -117q56 -97 56 -208t-22.5 -186t-55.5 -132q-54 -96 -126 -153 l-130 83v28q49 58 64 194q5 39 5 77.5t-8.5 75.5t-21.5 66q-27 60 -59 77z" />
<glyph unicode="&#x2022;" horiz-adv-x="905" d="M187 695.5q0 26.5 0.5 55.5t23.5 78t61 86q81 80 192 80t184 -73q70 -70 70 -178q0 -114 -84 -196q-82 -81 -192 -81q-55 0 -102 20q-97 41 -135 137q-18 45 -18 71.5z" />
<glyph unicode="&#x2026;" horiz-adv-x="1903" d="M126 172q0 41 16 79.5t44 68.5q59 63 144 63q84 0 136 -55q49 -54 49 -137v-24t-15 -58.5t-42 -66.5q-60 -64 -145 -64q-80 0 -133 55q-54 56 -54 139zM757 172q0 41 16 79.5t43 68.5q60 63 145 63q84 0 135 -55q50 -54 50 -137v-24t-15 -58.5t-43 -66.5 q-59 -64 -144 -64q-80 0 -133 55q-54 56 -54 139zM1388 172q0 41 16 79.5t44 68.5q59 63 144 63q84 0 136 -55q49 -54 49 -137v-24t-15 -58.5t-42 -66.5q-60 -64 -145 -64q-80 0 -133 55q-54 56 -54 139z" />
<glyph unicode="&#x202f;" horiz-adv-x="396" />
<glyph unicode="&#x2039;" horiz-adv-x="1214" d="M235 492v243l656 422l75 -216l-431 -327l431 -324l-75 -214z" />
<glyph unicode="&#x203a;" horiz-adv-x="1214" d="M238 290l75 -214l656 416v243l-656 422l-75 -216l431 -327z" />
<glyph unicode="&#x205f;" horiz-adv-x="495" />
<glyph unicode="&#x20ac;" horiz-adv-x="1504" d="M92 472v192h189q-1 14 -1 28v56.5t6 108.5h-157v192h194q101 348 423 451q103 33 176 36t110.5 3t87 -5.5t93 -16t76.5 -22t65 -18.5l-53 -243q-115 68 -303 68q-121 0 -212.5 -61t-136.5 -192h497v-192h-532q-2 -17 -2 -34v-58t3 -101h482v-192h-452q73 -271 350 -271 q203 0 325 83l60 -234q-32 -5 -63.5 -17.5t-78.5 -26.5q-118 -34 -271 -34t-260.5 34t-188.5 98q-160 128 -213 368h-213z" />
<glyph unicode="&#x2122;" horiz-adv-x="2228" d="M148 1543h724v-192l-256 1v-585h-219v585l-248 -1zM977 767l43 776h354l114 -341l33 -136l26 136l107 341h337l68 -776h-216l-31 487l-6 121l-44 -153l-168 -458h-148l-182 458l-51 154l-3 -122l-17 -487h-216z" />
<glyph unicode="&#x25fc;" horiz-adv-x="1140" d="M0 0v1140h1140v-1140h-1140z" />
</font>
</defs>
</svg>
